Subcategories
Tags
Language
Tags

John Lee Hooker - Face To Face (2003)

Posted By: popsakov
John Lee Hooker - Face To Face (2003)

John Lee Hooker - Face To Face (2003)
EAC Rip | FLAC (Img) + Cue + Log ~ 435 Mb | MP3 CBR320 ~ 168 Mb
Full Scans ~ 98 Mb | 01:09:51 | RAR 5% Recovery
Electric Blues / Delta Blues / Soul-Blues / Acoustic Blues
Eagle Records #ER 20023-2

Final recordings: Face to Face combines previously released material from John Lee Hooker with unfinished tracks he was working on before he died. Compiled by the estate of Hooker, with his daughter Zakiya at the helm, the unreleased material leans heavily toward soul-blues united with Hooker's patented electric Delta boogie. "Loving People," "Funky Mabel," "Six Page Letter" (a ballad with synth strings), and "Rock These Blues Away" are highlights. Zakiya Hooker takes the spotlight on "Mean Mean World," singing lead alongside her father, and the acoustic "Wednesday Evening Blues" features George Thorogood on guitar. Hooker staples "Dimples," "It Serves Me Right to Suffer," "Mad Man Blues," and "Boogie Chillen" also make their perennial appearances. While there are no real surprises here, Face to Face still sounds great and is recommended alongside John Lee's last official releases, Chill Out and Don't Look Back, both on Pointblank.

~ Al Campbell, All Music

***************

John Lee Hooker - Face To Face (2003)

John Lee Hooker - Face To Face (2003)

Track List:

01. Big Road [05:28]
02. Dimples [04:45]
03. Loving People [05:17]
04. Face To Face [05:21]
05. Funky Mabel [03:57]
06. It Serves Me Right To Suffer [05:51]
07. Up And Down [04:49]
08. Mad Man Blues [03:09]
09. Six Page Letter [05:33]
10. Stop Jivin' Me [03:27]
11. Mean Mean World [06:15]
12. Turn Over A New Leaf [05:12]
13. Wednesday Evening Blues [04:19]
14. Boogie Chillen' [02:45]
15. Rock These Blues Away [03:51]

Exact Audio Copy V1.0 beta 4 from 7. December 2014

Отчёт EAC об извлечении, выполненном 14. марта 2015, 18:45

John Lee Hooker / Face To Face

Дисковод: SONY CD-RW CRX230ED Adapter: 1 ID: 0

Режим чтения : Достоверность
Использование точного потока : Да
Отключение кэша аудио : Да
Использование указателей C2 : Нет

Коррекция смещения при чтении : 6
Способность читать области Lead-in и Lead-out : Нет
Заполнение пропущенных сэмплов тишиной : Да
Удаление блоков с тишиной в начале и конце : Нет
При вычислениях CRC использовались нулевые сэмплы : Да
Интерфейс : Встроенный Win32-интерфейс для Win NT/2000

Выходной формат : Внутренние WAV-операции
Формат сэмплов : 44.100 Гц; 16 бит; стерео


TOC извлечённого CD

Трек | Старт | Длительность | Начальный сектор | Конечный сектор
––––––––––––––––––––––––––––––––––-
1 | 0:00.00 | 5:27.74 | 0 | 24598
2 | 5:27.74 | 4:44.41 | 24599 | 45939
3 | 10:12.40 | 5:16.31 | 45940 | 69670
4 | 15:28.71 | 5:20.72 | 69671 | 93742
5 | 20:49.68 | 3:56.22 | 93743 | 111464
6 | 24:46.15 | 5:50.03 | 111465 | 137717
7 | 30:36.18 | 4:48.61 | 137718 | 159378
8 | 35:25.04 | 3:08.73 | 159379 | 173551
9 | 38:34.02 | 5:32.20 | 173552 | 198471
10 | 44:06.22 | 3:26.40 | 198472 | 213961
11 | 47:32.62 | 6:14.73 | 213962 | 242084
12 | 53:47.60 | 5:11.16 | 242085 | 265425
13 | 58:59.01 | 4:18.14 | 265426 | 284789
14 | 63:17.15 | 2:44.13 | 284790 | 297102
15 | 66:01.28 | 3:50.13 | 297103 | 314365


Характеристики диапазона извлечения и сообщения об ошибках

Выбранный диапазон

Имя файла F:\MusicCD\Torrent\John Lee Hooker - Face To Face\John Lee Hooker - Face To Face.wav

Пиковый уровень 100.0 %
Скорость извлечения 8.2 X
Качество диапазона 100.0 %
CRC теста CC6205D3
CRC копии CC6205D3
Копирование… OK

Ошибок не произошло


AccurateRip: сводка

Трек 1 : извлечено точно (доверие 56) [B8F468C0] (AR v2)
Трек 2 : извлечено точно (доверие 55) [D1FBA850] (AR v2)
Трек 3 : извлечено точно (доверие 55) [D3F6EE3C] (AR v2)
Трек 4 : извлечено точно (доверие 54) [8E99E468] (AR v2)
Трек 5 : извлечено точно (доверие 54) [704F2FEF] (AR v2)
Трек 6 : извлечено точно (доверие 56) [6D5E3B78] (AR v2)
Трек 7 : извлечено точно (доверие 55) [5878C512] (AR v2)
Трек 8 : извлечено точно (доверие 56) [2381BAB9] (AR v2)
Трек 9 : извлечено точно (доверие 54) [6BCDB4B1] (AR v2)
Трек 10 : извлечено точно (доверие 54) [0C953DF0] (AR v2)
Трек 11 : извлечено точно (доверие 53) [2DE9350A] (AR v2)
Трек 12 : извлечено точно (доверие 53) [F4E85B40] (AR v2)
Трек 13 : извлечено точно (доверие 53) [73B53F2D] (AR v2)
Трек 14 : извлечено точно (доверие 53) [EF088CEF] (AR v2)
Трек 15 : извлечено точно (доверие 52) [AD0806D9] (AR v2)

Все треки извлечены точно

Конец отчёта

–– CUETools DB Plugin V2.1.4

[CTDB TOCID: we4mIuqPYPZpdeZA_fX8fLp.9is-] found
Submit result: we4mIuqPYPZpdeZA_fX8fLp.9is- has been confirmed
Track | CTDB Status
1 | (34/34) Accurately ripped
2 | (34/34) Accurately ripped
3 | (34/34) Accurately ripped
4 | (33/34) Accurately ripped
5 | (34/34) Accurately ripped
6 | (34/34) Accurately ripped
7 | (34/34) Accurately ripped
8 | (34/34) Accurately ripped
9 | (34/34) Accurately ripped
10 | (34/34) Accurately ripped
11 | (34/34) Accurately ripped
12 | (34/34) Accurately ripped
13 | (34/34) Accurately ripped
14 | (33/34) Accurately ripped
15 | (33/34) Accurately ripped


==== Контрольная сумма отчёта 1BFEB2E0A2B78CFC95D7EEB23C8F8E775FAE6689A7BD3C635FA249C9B5484F98 ====

foobar2000 1.2.6 / Dynamic Range Meter 1.1.1
log date: 2015-03-15 11:44:20

––––––––––––––––––––––––––––––––––––––––
Analyzed: John Lee Hooker / Face To Face
––––––––––––––––––––––––––––––––––––––––

DR Peak RMS Duration Track
––––––––––––––––––––––––––––––––––––––––
DR10 0.00 dB -11.12 dB 5:28 01-Big Road
DR11 0.00 dB -12.31 dB 4:45 02-Dimples
DR9 0.00 dB -11.52 dB 5:16 03-Loving People
DR12 0.00 dB -13.33 dB 5:21 04-Face To Face
DR9 0.00 dB -10.46 dB 3:56 05-Funky Mabel
DR9 0.00 dB -10.78 dB 5:50 06-It Serves Me Right To Suffer
DR9 0.00 dB -11.44 dB 4:49 07-Up And Down
DR9 0.00 dB -10.35 dB 3:09 08-Mad Man Blues
DR10 0.00 dB -12.01 dB 5:32 09-Six Page Letter
DR11 0.00 dB -12.10 dB 3:27 10-Stop Jivin' Me
DR12 0.00 dB -13.70 dB 6:15 11-Mean Mean World
DR12 0.00 dB -13.66 dB 5:11 12-Turn Over A New Leaf
DR13 0.00 dB -15.66 dB 4:18 13-Wednesday Evening Blues
DR12 0.00 dB -14.63 dB 2:44 14-Boogie Chillen'
DR10 0.00 dB -10.93 dB 3:50 15-Rock These Blues Away
––––––––––––––––––––––––––––––––––––––––

Number of tracks: 15
Official DR value: DR10

Samplerate: 44100 Hz
Channels: 2
Bits per sample: 16
Bitrate: 828 kbps
Codec: FLAC
================================================================================

[CUETools log; Date: 15.03.2015 2:52:02; Version: 2.1.5]
[CTDB TOCID: we4mIuqPYPZpdeZA_fX8fLp.9is-] found.
Track | CTDB Status
1 | (35/35) Accurately ripped
2 | (35/35) Accurately ripped
3 | (35/35) Accurately ripped
4 | (34/35) Accurately ripped
5 | (35/35) Accurately ripped
6 | (35/35) Accurately ripped
7 | (35/35) Accurately ripped
8 | (35/35) Accurately ripped
9 | (35/35) Accurately ripped
10 | (35/35) Accurately ripped
11 | (35/35) Accurately ripped
12 | (35/35) Accurately ripped
13 | (35/35) Accurately ripped
14 | (34/35) Accurately ripped
15 | (34/35) Accurately ripped
[AccurateRip ID: 00282a4f-01c339e3-e6105f0f] found.
Track [ CRC | V2 ] Status
01 [e64342e6|b8f468c0] (062+056/127) Accurately ripped
02 [f632ff61|d1fba850] (061+055/125) Accurately ripped
03 [eac0bcdd|d3f6ee3c] (062+055/124) Accurately ripped
04 [6411fe15|8e99e468] (060+054/123) Accurately ripped
05 [b951ab64|704f2fef] (061+054/124) Accurately ripped
06 [ad019a79|6d5e3b78] (061+056/126) Accurately ripped
07 [4155e43b|5878c512] (061+055/125) Accurately ripped
08 [ca296cc2|2381bab9] (062+056/127) Accurately ripped
09 [8b89ec5f|6bcdb4b1] (061+054/124) Accurately ripped
10 [e7c667e6|0c953df0] (061+054/123) Accurately ripped
11 [308a52f2|2de9350a] (063+053/125) Accurately ripped
12 [884d07eb|f4e85b40] (062+053/124) Accurately ripped
13 [f9c9f7c4|73b53f2d] (061+053/122) Accurately ripped
14 [cd68c7d5|ef088cef] (062+053/124) Accurately ripped
15 [5ccf2f25|ad0806d9] (061+052/122) Accurately ripped
Offsetted by -676:
01 [317207fe] (003/127) Accurately ripped
02 [58d17dd1] (003/125) Accurately ripped
03 [f90b8539] (003/124) Accurately ripped
04 [35f059a1] (003/123) Accurately ripped
05 [48f58ff4] (003/124) Accurately ripped
06 [f87f100d] (003/126) Accurately ripped
07 [273049cb] (003/125) Accurately ripped
08 [c6501d02] (003/127) Accurately ripped
09 [971330cb] (003/124) Accurately ripped
10 [126e7536] (003/123) Accurately ripped
11 [67c9b372] (003/125) Accurately ripped
12 [cf08d6c3] (003/124) Accurately ripped
13 [7c241db0] (003/122) Accurately ripped
14 [fe262859] (003/124) Accurately ripped
15 [36f2b61f] (003/122) Accurately ripped
Offsetted by -752:
01 [ae897786] (000/127) No match (V2 was not tested)
02 [9a702fa1] (000/125) No match (V2 was not tested)
03 [ca2daded] (000/124) No match (V2 was not tested)
04 [94ba9465] (000/123) No match (V2 was not tested)
05 [72dc0f24] (000/124) No match (V2 was not tested)
06 [4fc0aba9] (000/126) No match (V2 was not tested)
07 [489aa3fb] (000/125) No match (V2 was not tested)
08 [c2d9c3c2] (000/127) No match (V2 was not tested)
09 [315db32f] (000/124) No match (V2 was not tested)
10 [6a8a70a6] (000/123) No match (V2 was not tested)
11 [c8e300f2] (000/125) No match (V2 was not tested)
12 [b2a1bd8b] (000/124) No match (V2 was not tested)
13 [2e64c894] (000/122) No match (V2 was not tested)
14 [6daa0745] (000/124) No match (V2 was not tested)
15 [49715b45] (000/122) No match (V2 was not tested)
Offsetted by -736:
01 [79412a26] (000/127) No match (V2 was not tested)
02 [c284abe1] (000/125) No match (V2 was not tested)
03 [325c61fd] (000/124) No match (V2 was not tested)
04 [8e3f29b5] (000/123) No match (V2 was not tested)
05 [9feee6e4] (000/124) No match (V2 was not tested)
06 [c41ea5d9] (000/126) No match (V2 was not tested)
07 [bad517bb] (000/125) No match (V2 was not tested)
08 [f9796ac2] (000/127) No match (V2 was not tested)
09 [6f3310ff] (000/124) No match (V2 was not tested)
10 [8de2dd66] (000/123) No match (V2 was not tested)
11 [639a4ef2] (000/125) No match (V2 was not tested)
12 [3f59212b] (000/124) No match (V2 was not tested)
13 [aa8d1064] (000/122) No match (V2 was not tested)
14 [f7df1bb5] (000/124) No match (V2 was not tested)
15 [27883a22] (000/122) No match (V2 was not tested)

Track Peak [ CRC32 ] [W/O NULL] [ LOG ]
– 100,0 [CC6205D3] [E13C8D71] CRC32
01 100,0 [D2B5AF7B] [A00EA6D2]
02 100,0 [19407FB2] [F60D1C6E]
03 100,0 [B4796490] [6A6326CB]
04 100,0 [A2C6693B] [07A33955]
05 100,0 [9D3175F6] [557EB4DD]
06 100,0 [8424C9BD] [14C4995C]
07 100,0 [6CA7CD2F] [E18169F3]
08 100,0 [EBA56F44] [9C731CA8]
09 100,0 [1C0F6FA2] [69DA3F6C]
10 100,0 [BB70007D] [2175B535]
11 100,0 [0EBFEF6E] [F02EBC93]
12 100,0 [86A05C31] [E8BEF9B1]
13 100,0 [3233101D] [E2513B61]
14 100,0 [B2255469] [22A0AF29]
15 100,0 [B188D49F] [1B17C3AE]

John Lee Hooker - Face To Face (2003)


All thanks go to squirr

>>> John Lee Hooker in my Blog <<<

DOWNLOAD: