Subcategories
Tags
Language
Tags

John Lee Hooker - Live At Sugar Hill, Vol. 2 (2002)

Posted By: Designol
John Lee Hooker - Live At Sugar Hill, Vol. 2 (2002)

John Lee Hooker - Live At Sugar Hill, Vol. 2 (2002)
XLD | FLAC | Image (Cue&Log) ~ 427 Mb | Mp3 (CBR320) ~ 212 Mb | Scans included
Delta Blues, Country Blues | Label: Fantasy | # 00025218771429 | Time: 01:16:12

Why they kept these 19 recordings locked up in some vault for 40 years is beyond comprehension. A chunk of the Live at Sugar Hill material – recorded at a club in the Bay Area – was issued by Fantasy as Boogie Chillun on LP in 1972. It is available on CD minus one track under the same title. As good as that material was, these tracks from the very same gig are hands down some of the sexiest, deepest blues John Lee Hooker ever recorded – and that's saying something. Accompanied only by his hollow-bodied electric guitar and his foot on the floor, Hooker takes listeners through a performance so intimate that you wonder if there was an audience present – there is clapping, but not much. Versions of "Crawling King Snake," "Bottle Up and Go," "Let's Get It," "Jelly Jelly," "What's the Matter Baby," "You Don't Miss Your Water," "I Can't Hold On," and others get perhaps their definitive versions here. The opening track, "You Torture My Soul," is one of Hooker's most poignant moments, full of venom and vulnerability. In addition to the stellar performances, Hooker's guitar playing here is perhaps the finest of his career. The rhythms are much more subtle, and the stomp and off-kilter shuffle that are his signature are everywhere present – they slip out of joint and undo each other from track to track. Hooker actually expands the beat and the listener's sense of time. This is one of the most essential recordings of Hooker material ever issued.

Review by Thom Jurek, Allmusic.com

John Lee Hooker - Live At Sugar Hill, Vol. 2 (2002)



Tracklist:

01. You torture my soul (3:46)
02. Bottle up and go (3:15)
03. Come back baby (let's talk it over) (4:21)
04. Catfish blues (3:35)
05. What's the matter baby (3:57)
06. Jelly Jelly (3:49)
07. The things that I used to do (4:49)
08. Taxi driver (4:38)
09. I love no one but my baby (3:37)
10. Crawlin' king snake (5:00)
11. I can't hold on (4:20)
12. How can you do it (3:35)
13. Let's get it (2:27)
14. Sinner's prayer (5:36)
15. That's all right (3:51)
16. What'd I say (2:58)
17. You don't miss your water (4:26)
18. Third degree (3:51)
19. Five long years (4:21)


X Lossless Decoder version 20130407 (143.0)

XLD extraction logfile from 2013-04-28 14:10:20 +0300

John Lee Hooker / Live at Sugar Hill vol. 2

Used drive : MATSHITA DVD-R UJ-898 (revision HC09)
Media type : Pressed CD

Ripper mode : XLD Secure Ripper
Disable audio cache : OK for the drive with a cache less than 1375KiB
Make use of C2 pointers : NO
Read offset correction : 102
Max retry count : 20
Gap status : Analyzed, Appended

TOC of the extracted CD
Track | Start | Length | Start sector | End sector
––––––––––––––––––––––––––––-
1 | 00:00:00 | 03:46:15 | 0 | 16964
2 | 03:46:15 | 03:14:50 | 16965 | 31564
3 | 07:00:65 | 04:21:37 | 31565 | 51176
4 | 11:22:27 | 03:35:03 | 51177 | 67304
5 | 14:57:30 | 03:57:17 | 67305 | 85096
6 | 18:54:47 | 03:48:43 | 85097 | 102239
7 | 22:43:15 | 04:48:72 | 102240 | 123911
8 | 27:32:12 | 04:38:00 | 123912 | 144761
9 | 32:10:12 | 03:36:58 | 144762 | 161019
10 | 35:46:70 | 05:00:15 | 161020 | 183534
11 | 40:47:10 | 04:20:00 | 183535 | 203034
12 | 45:07:10 | 03:35:17 | 203035 | 219176
13 | 48:42:27 | 02:27:05 | 219177 | 230206
14 | 51:09:32 | 05:35:68 | 230207 | 255399
15 | 56:45:25 | 03:50:55 | 255400 | 272704
16 | 60:36:05 | 02:58:02 | 272705 | 286056
17 | 63:34:07 | 04:26:05 | 286057 | 306011
18 | 68:00:12 | 03:51:03 | 306012 | 323339
19 | 71:51:15 | 04:21:05 | 323340 | 342919

List of alternate offset correction values
# | Absolute | Relative | Confidence
–––––––––––––––––––––
1 | 766 | 664 | 3
2 | 107 | 5 | 2

AccurateRip Summary (DiscID: 0033fa5f-02dad308-1911dc13)
Track 01 : OK (v1, confidence 3/5, with different offset)
Track 02 : OK (v1, confidence 3/5, with different offset)
Track 03 : OK (v1, confidence 3/5, with different offset)
Track 04 : OK (v1, confidence 3/5, with different offset)
Track 05 : OK (v1, confidence 3/5, with different offset)
Track 06 : OK (v1, confidence 3/5, with different offset)
Track 07 : OK (v1, confidence 3/5, with different offset)
Track 08 : OK (v1, confidence 3/5, with different offset)
Track 09 : OK (v1, confidence 3/5, with different offset)
Track 10 : OK (v1, confidence 3/5, with different offset)
Track 11 : OK (v1, confidence 3/5, with different offset)
Track 12 : OK (v1, confidence 3/5, with different offset)
Track 13 : OK (v1, confidence 3/5, with different offset)
Track 14 : OK (v1, confidence 3/5, with different offset)
Track 15 : OK (v1, confidence 3/5, with different offset)
Track 16 : OK (v1, confidence 3/5, with different offset)
Track 17 : OK (v1, confidence 3/5, with different offset)
Track 18 : OK (v1, confidence 3/5, with different offset)
Track 19 : OK (v1, confidence 3/5, with different offset)
->All tracks accurately ripped.

All Tracks
Filename : /Users/Home/Music/my rips/live at sugar hill/john lee hooker -live at sugar hill vol.2-2002/Live at Sugar Hill vol. 2.flac
Album gain : -6.70 dB
Peak : 1.000000
CRC32 hash (test run) : 134249B7
CRC32 hash : 134249B7
CRC32 hash (skip zero) : 5BB37557
Statistics
Read error : 0
Jitter error (maybe fixed) : 0
Retry sector count : 12
Damaged sector count : 0

Track 01
Pre-gap length : 00:02:00

Track gain : -8.13 dB
Peak : 0.999969
CRC32 hash (test run) : 331ADAFE
CRC32 hash : 331ADAFE
CRC32 hash (skip zero) : 64727809
AccurateRip v1 signature : BF6CA637 (65EBE1E1 w/correction)
AccurateRip v2 signature : F962E03C
->Accurately ripped with different offset (v1, confidence 3/5, offset +664)
Statistics
Read error : 0
Jitter error (maybe fixed) : 0
Retry sector count : 0
Damaged sector count : 0

Track 02
Pre-gap length : 00:00:30

Track gain : -5.42 dB
Peak : 0.999969
CRC32 hash (test run) : 0F5EA604
CRC32 hash : 0F5EA604
CRC32 hash (skip zero) : E8B7D314
AccurateRip v1 signature : E4C24B68 (9C56CE51 w/correction)
AccurateRip v2 signature : 221A2DBF
->Accurately ripped with different offset (v1, confidence 3/5, offset +664)
Statistics
Read error : 0
Jitter error (maybe fixed) : 0
Retry sector count : 0
Damaged sector count : 0

Track 03
Pre-gap length : 00:00:70

Track gain : -6.04 dB
Peak : 0.995972
CRC32 hash (test run) : B0273335
CRC32 hash : B0273335
CRC32 hash (skip zero) : 96373F98
AccurateRip v1 signature : 1841F1B8 (276E836D w/correction)
AccurateRip v2 signature : 6BFD6728
->Accurately ripped with different offset (v1, confidence 3/5, offset +664)
Statistics
Read error : 0
Jitter error (maybe fixed) : 0
Retry sector count : 0
Damaged sector count : 0

Track 04
Pre-gap length : 00:01:02

Track gain : -7.39 dB
Peak : 0.999969
CRC32 hash (test run) : CCEE914F
CRC32 hash : CCEE914F
CRC32 hash (skip zero) : 7B73A224
AccurateRip v1 signature : E70433F3 (C05CA253 w/correction)
AccurateRip v2 signature : AC2D023A
->Accurately ripped with different offset (v1, confidence 3/5, offset +664)
Statistics
Read error : 0
Jitter error (maybe fixed) : 0
Retry sector count : 0
Damaged sector count : 0

Track 05
Pre-gap length : 00:00:40

Track gain : -4.07 dB
Peak : 0.980774
CRC32 hash (test run) : 8D331113
CRC32 hash : 8D331113
CRC32 hash (skip zero) : D0B5F8E3
AccurateRip v1 signature : A787BB8A (5988C7EE w/correction)
AccurateRip v2 signature : 1E23A1C9
->Accurately ripped with different offset (v1, confidence 3/5, offset +664)
Statistics
Read error : 0
Jitter error (maybe fixed) : 0
Retry sector count : 0
Damaged sector count : 0

Track 06
Pre-gap length : 00:00:52

Track gain : -3.89 dB
Peak : 0.999969
CRC32 hash (test run) : 7F9E2E31
CRC32 hash : 7F9E2E31
CRC32 hash (skip zero) : A8FC1099
AccurateRip v1 signature : C0978DAA (A11F3FF0 w/correction)
AccurateRip v2 signature : 9A2DB786
->Accurately ripped with different offset (v1, confidence 3/5, offset +664)
Statistics
Read error : 0
Jitter error (maybe fixed) : 0
Retry sector count : 0
Damaged sector count : 0

Track 07
Pre-gap length : 00:00:23

Track gain : -4.47 dB
Peak : 0.982849
CRC32 hash (test run) : 0EBDB700
CRC32 hash : 0EBDB700
CRC32 hash (skip zero) : 1D902864
AccurateRip v1 signature : C8F9DB1F (7B236BE9 w/correction)
AccurateRip v2 signature : F984DE73
->Accurately ripped with different offset (v1, confidence 3/5, offset +664)
Statistics
Read error : 0
Jitter error (maybe fixed) : 0
Retry sector count : 0
Damaged sector count : 0

Track 08
Pre-gap length : 00:01:07

Track gain : -5.67 dB
Peak : 0.999969
CRC32 hash (test run) : 8387DE92
CRC32 hash : 8387DE92
CRC32 hash (skip zero) : 1923A5A7
AccurateRip v1 signature : 18664C85 (765461C4 w/correction)
AccurateRip v2 signature : AD427B76
->Accurately ripped with different offset (v1, confidence 3/5, offset +664)
Statistics
Read error : 0
Jitter error (maybe fixed) : 0
Retry sector count : 0
Damaged sector count : 0

Track 09
Pre-gap length : 00:00:22

Track gain : 7.97 dB
Peak : 0.613922
CRC32 hash (test run) : A3D530F9
CRC32 hash : A3D530F9
CRC32 hash (skip zero) : 11B0EC52
AccurateRip v1 signature : 43685ADC (DB9977EB w/correction)
AccurateRip v2 signature : F620B7F4
->Accurately ripped with different offset (v1, confidence 3/5, offset +664)
Statistics
Read error : 0
Jitter error (maybe fixed) : 0
Retry sector count : 0
Damaged sector count : 0

Track 10
Pre-gap length : 00:00:10

Track gain : -6.47 dB
Peak : 0.999969
CRC32 hash (test run) : AC5975D3
CRC32 hash : AC5975D3
CRC32 hash (skip zero) : A539E4A4
AccurateRip v1 signature : DE60BE2F (8AB3AF9E w/correction)
AccurateRip v2 signature : 36B71ED8
->Accurately ripped with different offset (v1, confidence 3/5, offset +664)
Statistics
Read error : 0
Jitter error (maybe fixed) : 0
Retry sector count : 0
Damaged sector count : 0

Track 11
Pre-gap length : 00:01:33

Track gain : -8.54 dB
Peak : 0.999969
CRC32 hash (test run) : 8813882A
CRC32 hash : 8813882A
CRC32 hash (skip zero) : 5B26D6EA
AccurateRip v1 signature : ED77EA2D (D15C32E1 w/correction)
AccurateRip v2 signature : 71622850
->Accurately ripped with different offset (v1, confidence 3/5, offset +664)
Statistics
Read error : 0
Jitter error (maybe fixed) : 0
Retry sector count : 0
Damaged sector count : 0

Track 12
Pre-gap length : 00:00:23

Track gain : -9.02 dB
Peak : 1.000000
CRC32 hash (test run) : E38B17F3
CRC32 hash : E38B17F3
CRC32 hash (skip zero) : 43D58766
AccurateRip v1 signature : B9E8DEC6 (5E74023F w/correction)
AccurateRip v2 signature : E6211EAC
->Accurately ripped with different offset (v1, confidence 3/5, offset +664)
Statistics
Read error : 0
Jitter error (maybe fixed) : 0
Retry sector count : 0
Damaged sector count : 0

Track 13
Pre-gap length : 00:00:15

Track gain : -7.99 dB
Peak : 1.000000
CRC32 hash (test run) : 6D8E154B
CRC32 hash : 6D8E154B
CRC32 hash (skip zero) : 71F6648B
AccurateRip v1 signature : CE6DEA61 (B6EAE05A w/correction)
AccurateRip v2 signature : CA2183EC
->Accurately ripped with different offset (v1, confidence 3/5, offset +664)
Statistics
Read error : 0
Jitter error (maybe fixed) : 0
Retry sector count : 0
Damaged sector count : 0

Track 14
Pre-gap length : 00:00:22

Track gain : -5.17 dB
Peak : 0.999969
CRC32 hash (test run) : D5FD5FBD
CRC32 hash : D5FD5FBD
CRC32 hash (skip zero) : 35342CE1
AccurateRip v1 signature : 2D1B0F83 (F521C059 w/correction)
AccurateRip v2 signature : B70ECB12
->Accurately ripped with different offset (v1, confidence 3/5, offset +664)
Statistics
Read error : 0
Jitter error (maybe fixed) : 0
Retry sector count : 0
Damaged sector count : 0

Track 15
Pre-gap length : 00:00:15

Track gain : -5.59 dB
Peak : 0.999969
CRC32 hash (test run) : 0D44B21A
CRC32 hash : 0D44B21A
CRC32 hash (skip zero) : 4E145E50
AccurateRip v1 signature : 3F7722CD (84098AD1 w/correction)
AccurateRip v2 signature : AF66129E
->Accurately ripped with different offset (v1, confidence 3/5, offset +664)
Statistics
Read error : 0
Jitter error (maybe fixed) : 0
Retry sector count : 0
Damaged sector count : 0

Track 16
Pre-gap length : 00:00:33

Track gain : -7.03 dB
Peak : 0.982086
CRC32 hash (test run) : E93311D4
CRC32 hash : E93311D4
CRC32 hash (skip zero) : 8117C72A
AccurateRip v1 signature : 152C74D7 (0842B3AE w/correction)
AccurateRip v2 signature : 75817F20
->Accurately ripped with different offset (v1, confidence 3/5, offset +664)
Statistics
Read error : 0
Jitter error (maybe fixed) : 0
Retry sector count : 0
Damaged sector count : 0

Track 17
Pre-gap length : 00:00:15

Track gain : -5.40 dB
Peak : 0.999969
CRC32 hash (test run) : 30D2C1C9
CRC32 hash : 30D2C1C9
CRC32 hash (skip zero) : F1E2D708
AccurateRip v1 signature : BC6AA45C (1E29C86B w/correction)
AccurateRip v2 signature : F09BB9F0
->Accurately ripped with different offset (v1, confidence 3/5, offset +664)
Statistics
Read error : 0
Jitter error (maybe fixed) : 0
Retry sector count : 0
Damaged sector count : 0

Track 18
Pre-gap length : 00:00:15

Track gain : -5.56 dB
Peak : 0.999969
CRC32 hash (test run) : E0865FC0
CRC32 hash : E0865FC0
CRC32 hash (skip zero) : 6C63A881
AccurateRip v1 signature : 4017CE5E (5D80E638 w/correction)
AccurateRip v2 signature : 2E12354A
->Accurately ripped with different offset (v1, confidence 3/5, offset +664)
Statistics
Read error : 0
Jitter error (maybe fixed) : 0
Retry sector count : 0
Damaged sector count : 0

Track 19
Pre-gap length : 00:00:48

Track gain : -5.86 dB
Peak : 1.000000
CRC32 hash (test run) : 0E34B064
CRC32 hash : 0E34B064
CRC32 hash (skip zero) : 44BC0B67
AccurateRip v1 signature : 0C95B02E (63882BFD w/correction)
AccurateRip v2 signature : A048F612
->Accurately ripped with different offset (v1, confidence 3/5, offset +664)
Statistics
Read error : 0
Jitter error (maybe fixed) : 0
Retry sector count : 12
Damaged sector count : 0

No errors occurred

End of status report

[CUETools log; Date: 11.08.2018 22:56:49; Version: 2.1.4]
[CTDB TOCID: jekEL1n18UYmhqkSIJqU8X6DSXM-] found.
Track | CTDB Status
1 | (8/8) Accurately ripped
2 | (8/8) Accurately ripped
3 | (8/8) Accurately ripped
4 | (8/8) Accurately ripped
5 | (8/8) Accurately ripped
6 | (8/8) Accurately ripped
7 | (8/8) Accurately ripped
8 | (8/8) Accurately ripped
9 | (8/8) Accurately ripped
10 | (8/8) Accurately ripped
11 | (8/8) Accurately ripped
12 | (8/8) Accurately ripped
13 | (8/8) Accurately ripped
14 | (8/8) Accurately ripped
15 | (8/8) Accurately ripped
16 | (8/8) Accurately ripped
17 | (8/8) Accurately ripped
18 | (8/8) Accurately ripped
19 | (8/8) Accurately ripped
[AccurateRip ID: 0033fa5f-02dad308-1911dc13] found.
Track [ CRC | V2 ] Status
01 [bf6ca637|f962e03c] (00+00/11) No match
02 [e4c24b68|221a2dbf] (00+00/11) No match
03 [1841f1b8|6bfd6728] (00+00/11) No match
04 [e70433f3|ac2d023a] (00+00/11) No match
05 [a787bb8a|1e23a1c9] (00+00/11) No match
06 [c0978daa|9a2db786] (00+00/11) No match
07 [c8f9db1f|f984de73] (00+00/11) No match
08 [18664c85|ad427b76] (00+00/11) No match
09 [43685adc|f620b7f4] (00+00/11) No match
10 [de60be2f|36b71ed8] (00+00/11) No match
11 [ed77ea2d|71622850] (00+00/11) No match
12 [b9e8dec6|e6211eac] (00+00/11) No match
13 [ce6dea61|ca2183ec] (00+00/11) No match
14 [2d1b0f83|b70ecb12] (00+00/11) No match
15 [3f7722cd|af66129e] (00+00/11) No match
16 [152c74d7|75817f20] (00+00/11) No match
17 [bc6aa45c|f09bb9f0] (00+00/11) No match
18 [4017ce5e|2e12354a] (00+00/11) No match
19 [0c95b02e|a048f612] (00+00/11) No match
Offsetted by 5:
01 [a4bf28ca] (02/11) Accurately ripped
02 [cddd35aa] (02/11) Accurately ripped
03 [d248cb33] (02/11) Accurately ripped
04 [c0ccbfbb] (02/11) Accurately ripped
05 [4ba36fb2] (02/11) Accurately ripped
06 [bc846bf1] (02/11) Accurately ripped
07 [bd24cf9b] (02/11) Accurately ripped
08 [cd5d0ac0] (02/11) Accurately ripped
09 [24d52b98] (02/11) Accurately ripped
10 [8c16a3af] (02/11) Accurately ripped
11 [9893527b] (02/11) Accurately ripped
12 [7d72757c] (02/11) Accurately ripped
13 [aa702c51] (02/11) Accurately ripped
14 [94392417] (02/11) Accurately ripped
15 [c8cfcfe3] (02/11) Accurately ripped
16 [03f06dc9] (02/11) Accurately ripped
17 [d4694dc1] (02/11) Accurately ripped
18 [c4e3d298] (02/11) Accurately ripped
19 [73082e40] (02/11) Accurately ripped
Offsetted by 664:
01 [65ebe1e1] (03/11) Accurately ripped
02 [9c56ce51] (03/11) Accurately ripped
03 [276e836d] (03/11) Accurately ripped
04 [c05ca253] (03/11) Accurately ripped
05 [5988c7ee] (03/11) Accurately ripped
06 [a11f3ff0] (03/11) Accurately ripped
07 [7b236be9] (03/11) Accurately ripped
08 [765461c4] (03/11) Accurately ripped
09 [db9977eb] (03/11) Accurately ripped
10 [8ab3af9e] (03/11) Accurately ripped
11 [d15c32e1] (03/11) Accurately ripped
12 [5e74023f] (03/11) Accurately ripped
13 [b6eae05a] (03/11) Accurately ripped
14 [f521c059] (03/11) Accurately ripped
15 [84098ad1] (03/11) Accurately ripped
16 [0842b3ae] (03/11) Accurately ripped
17 [1e29c86b] (03/11) Accurately ripped
18 [5d80e638] (03/11) Accurately ripped
19 [63882bfd] (03/11) Accurately ripped

Track Peak [ CRC32 ] [W/O NULL]
– 100,0 [134249B7] [5BB37557]
01 100,0 [331ADAFE] [64727809]
02 100,0 [0F5EA604] [E8B7D314]
03 99,6 [B0273335] [96373F98]
04 100,0 [CCEE914F] [7B73A224]
05 98,0 [8D331113] [D0B5F8E3]
06 100,0 [7F9E2E31] [A8FC1099]
07 98,2 [0EBDB700] [1D902864]
08 100,0 [8387DE92] [1923A5A7]
09 61,3 [A3D530F9] [11B0EC52]
10 100,0 [AC5975D3] [A539E4A4]
11 100,0 [8813882A] [5B26D6EA]
12 100,0 [E38B17F3] [43D58766]
13 100,0 [6D8E154B] [71F6648B]
14 100,0 [D5FD5FBD] [35342CE1]
15 100,0 [0D44B21A] [4E145E50]
16 98,2 [E93311D4] [8117C72A]
17 100,0 [30D2C1C9] [F1E2D708]
18 100,0 [E0865FC0] [6C63A881]
19 100,0 [0E34B064] [44BC0B67]

foobar2000 1.2 / Dynamic Range Meter 1.1.1
log date: 2018-08-11 22:55:35

––––––––––––––––––––––––––––––––––––––––
Analyzed: John Lee Hooker / Live at Sugar Hill vol. 2
––––––––––––––––––––––––––––––––––––––––

DR Peak RMS Duration Track
––––––––––––––––––––––––––––––––––––––––
DR9 0.00 dB -11.99 dB 3:46 01-You torture my soul
DR12 0.00 dB -15.66 dB 3:15 02-Bottle up and go
DR11 -0.04 dB -14.96 dB 4:21 03-Come back baby (let's talk it over)
DR9 0.00 dB -13.17 dB 3:35 04-Catfish blues
DR13 -0.17 dB -17.66 dB 3:57 05-What's the matter baby
DR12 0.00 dB -17.63 dB 3:49 06-Jelly Jelly
DR12 -0.15 dB -17.16 dB 4:49 07-The things that I used to do
DR11 0.00 dB -14.64 dB 4:38 08-Taxi driver
DR16 -4.24 dB -27.41 dB 3:37 09-I love no one but my baby
DR10 0.00 dB -14.06 dB 5:00 10-Crawlin' king snake
DR8 0.00 dB -10.77 dB 4:20 11-I can't hold on
DR8 0.00 dB -10.83 dB 3:35 12-How can you do it
DR8 0.00 dB -12.79 dB 2:27 13-Let's get it
DR12 0.00 dB -16.78 dB 5:36 14-Sinner's prayer
DR12 0.00 dB -16.54 dB 3:51 15-That's all right
DR10 -0.16 dB -13.75 dB 2:58 16-What'd I say
DR11 0.00 dB -14.35 dB 4:26 17-You don't miss your water
DR12 0.00 dB -15.99 dB 3:51 18-Third degree
DR11 0.00 dB -15.86 dB 4:21 19-Five long years
––––––––––––––––––––––––––––––––––––––––

Number of tracks: 19
Official DR value: DR11

Samplerate: 44100 Hz
Channels: 2
Bits per sample: 16
Bitrate: 716 kbps
Codec: FLAC
================================================================================

John Lee Hooker - Live At Sugar Hill, Vol. 2 (2002)

John Lee Hooker - Live At Sugar Hill, Vol. 2 (2002)

All thanks to original releaser - igaann

More interesting music in My Blog