Tags
Language
Tags

John Legend - Darkness And Light (2016) {Deluxe Edition}

Posted By: popsakov
John Legend - Darkness And Light (2016) {Deluxe Edition}

John Legend - Darkness And Light (2016) {Deluxe Edition}
EAC Rip | FLAC (Img) + Cue + Log ~ 390 Mb | MP3 CBR320 ~ 152 Mb
Covers Included | 00:55:34 | RAR 5% Recovery
R&B, Neo-Soul, Funk | Columbia / Sony Music #88985401652

Darkness And Light is the fifth studio album from acclaimed, multi-platinum selling, Oscar, Golden Globe and 10x Grammy Award winning American singer/songwriter John Legend. It was released on December 2nd via Columbia Records as follow-up to 2013’s “Love In the Future.“ This new 12 song collection is produced by Blake Mills (Alabama Shakes), and features multiple guest collaborations including Chance the Rapper, Alabama Shakes' Brittany Howard, and Miguel. The lead single and video from Darkness And Light, is the anthemic track, "Love Me Now," written and produced by John Legend with Blake Mills and John Ryan (One Direction).

John Legend's work to date has garnered him ten Grammy Awards, an Academy Award, a Golden Globe Award, the BET Award for Best New Artist and the special Starlight Award from the Songwriters Hall of Fame, among others. His debut album, Get Lifted, was released in December of 2004 through Columbia Records. The critically acclaimed album spawned the artist's first hit single, "Ordinary People," and scored Legend multiple Grammy Awards in 2006, including Best R&B Album, Best New Artist and Best Male R&B Vocal Performance. The follow up was 2006's platinum-selling Once Again, which brought Legend another Grammy, Best Male R&B Performance, for his single "Heaven," and included collaborations with Kanye West, will.i.am and Raphael Saadiq. Legend's next release was 2008's Evolver, led by the hit single "Green Light" featuring Andre 3000. His 2010 collaboration with the Roots, Wake Up, won the Grammy for Best R&B Album a year later. Legend s highly acclaimed fourth studio album Love In the Future arrived in 2013, and featured the worldwide hit "All of Me," his highest selling and charting song to date. Following the success of the platinum album Love In The Future, Legend won his first Academy Award, first Golden Globe Award, his 10th Grammy award, and a Critic's Choice Award for his song "Glory," that he wrote and performed with Common, for the film Selma.

The next chapter of John Legend's continually building career is Darkness And Light. The music on this new album not only reflects Legend's continued evolution as an artist, but also his role as a husband and a new father. John married his longtime girlfriend, model Chrissy Teigen, in September of 2013. In 2016, the couple had a daughter named Luna.

***************

John Legend - Darkness And Light (2016) {Deluxe Edition}

Track List:

01. I Know Better [3:04]
02. Penthouse Floor (feat. Chance The Rapper) [4:44]
03. Darkness And Light (feat. Brittany Howard) [3:51]
04. Overload (feat. Miguel) [3:20]
05. Love Me Now [3:30]
06. What You Do To Me [3:21]
07. Surefire [4:03]
08. Right By You (For Luna) [4:16]
09. Temporarily Painless [3:56]
10. How Can I Blame Yoy [3:56]
11. Same Old Story [3:32]
12. Marching Into The Dark [4:22]
13. Drawing Lines [2:21]
14. What You Do To Me (Piano Demo) [3:41]
15. Love You Anyway [3:36]

Exact Audio Copy V1.1 from 23. June 2015

EAC extraction logfile from 1. December 2016, 18:12

John Legend / Darkness And Light (Deluxe Edition)

Used drive : Pioneer BDR-209DBK Adapter: 0 ID: 0

Read mode : Secure
Utilize accurate stream : Yes
Defeat audio cache : Yes
Make use of C2 pointers : No

Read offset correction : 6
Overread into Lead-In and Lead-Out : No
Fill up missing offset samples with silence : Yes
Delete leading and trailing silent blocks : No
Null samples used in CRC calculations : Yes
Used interface : Installed external ASPI interface

Used output format : Internal WAV Routines
Sample format : 44.100 Hz; 16 Bit; Stereo


TOC of the extracted CD

Track | Start | Length | Start sector | End sector
––––––––––––––––––––––––––––-
1 | 0:00.00 | 3:03.69 | 0 | 13793
2 | 3:03.69 | 4:43.59 | 13794 | 35077
3 | 7:47.53 | 3:50.60 | 35078 | 52387
4 | 11:38.38 | 3:20.22 | 52388 | 67409
5 | 14:58.60 | 3:30.22 | 67410 | 83181
6 | 18:29.07 | 3:21.29 | 83182 | 98285
7 | 21:50.36 | 4:03.14 | 98286 | 116524
8 | 25:53.50 | 4:16.32 | 116525 | 135756
9 | 30:10.07 | 3:55.57 | 135757 | 153438
10 | 34:05.64 | 3:56.02 | 153439 | 171140
11 | 38:01.66 | 3:32.35 | 171141 | 187075
12 | 41:34.26 | 4:21.39 | 187076 | 206689
13 | 45:55.65 | 2:21.37 | 206690 | 217301
14 | 48:17.27 | 3:40.53 | 217302 | 233854
15 | 51:58.05 | 3:36.02 | 233855 | 250056


Range status and errors

Selected range

Filename H:\Spotnet\John L. - Darkness And Light (Deluxe)(EAC)\John Legend - Darkness And Light (Deluxe Edition).wav

Peak level 100.0 %
Extraction speed 7.3 X
Range quality 100.0 %
Test CRC 091BAEDB
Copy CRC 091BAEDB
Copy OK

No errors occurred


AccurateRip summary

Track 1 not present in database
Track 2 not present in database
Track 3 not present in database
Track 4 not present in database
Track 5 not present in database
Track 6 not present in database
Track 7 not present in database
Track 8 not present in database
Track 9 not present in database
Track 10 not present in database
Track 11 not present in database
Track 12 not present in database
Track 13 not present in database
Track 14 not present in database
Track 15 not present in database

None of the tracks are present in the AccurateRip database

End of status report

[CUETools log; Date: 19.12.2019 17:46:23; Version: 2.1.6]
[CTDB TOCID: t0K1be.4kJyYXpItBJm6z4x4gOI-] found.
Track | CTDB Status
1 | (136/136) Accurately ripped
2 | (135/136) Accurately ripped
3 | (136/136) Accurately ripped
4 | (136/136) Accurately ripped
5 | (136/136) Accurately ripped
6 | (136/136) Accurately ripped
7 | (136/136) Accurately ripped
8 | (136/136) Accurately ripped
9 | (136/136) Accurately ripped
10 | (136/136) Accurately ripped
11 | (136/136) Accurately ripped
12 | (136/136) Accurately ripped
13 | (136/136) Accurately ripped
14 | (136/136) Accurately ripped
15 | (134/136) Accurately ripped
[AccurateRip ID: 001eda5c-015dbc80-c20d060f] found.
Track [ CRC | V2 ] Status
01 [5cde5971|abc3247d] (00+39/39) Accurately ripped
02 [3b0a9777|7fffc051] (00+39/39) Accurately ripped
03 [5a9b9b5a|893226d4] (00+40/40) Accurately ripped
04 [5157d909|f739f814] (00+40/40) Accurately ripped
05 [a6baeed7|9f82de09] (00+39/39) Accurately ripped
06 [a3362e32|294b1bd2] (00+39/39) Accurately ripped
07 [5e93eab0|260dc04a] (00+39/39) Accurately ripped
08 [3cfb3191|2229dd6a] (00+39/39) Accurately ripped
09 [79ca8c84|04e6097d] (00+39/39) Accurately ripped
10 [53341044|e7bcbb5f] (00+39/39) Accurately ripped
11 [3244218c|4e92fe6b] (00+39/39) Accurately ripped
12 [76fdb512|d357de82] (00+39/39) Accurately ripped
13 [5ee17963|ba5c5d56] (00+38/38) Accurately ripped
14 [492dda2a|3a7e0a4d] (00+37/37) Accurately ripped
15 [4166c2ee|2cc9efe8] (00+37/37) Accurately ripped

Track Peak [ CRC32 ] [W/O NULL] [ LOG ]
– 100,0 [091BAEDB] [82530D4E] CRC32
01 99,6 [FA644394] [E78A7322]
02 100,0 [1C1CB70E] [188882F3]
03 100,0 [E8A25F34] [8706CD84]
04 100,0 [5BB81B5E] [E88D09FD]
05 100,0 [2A52DA20] [0DE8C34C]
06 100,0 [7622E8AA] [A2E2D3F8]
07 100,0 [D6647E66] [7E9CCC74]
08 99,9 [11950126] [1C32791B]
09 100,0 [B7D6819E] [6E45FC81]
10 100,0 [7E8E9340] [D54DC50E]
11 100,0 [6EE5959E] [19966B5A]
12 100,0 [5492B4DF] [460FFB6B]
13 100,0 [D8969563] [9DA5F42F]
14 100,0 [D3B5057C] [B6A42735]
15 100,0 [2B3BBC2F] [3011FEDB]

John Legend - Darkness And Light (2016) {Deluxe Edition}


All thanks go to the original ripper(s) …

>>> My Blog <<<

DOWNLOAD: