Subcategories

John Lennon - Imagine (1971) [1989, Toshiba-EMI CP43-5773, Japan]

Posted By: v3122
John Lennon - Imagine (1971) [1989, Toshiba-EMI CP43-5773, Japan]

John Lennon - Imagine (1971)
EAC | Flac(Image) + Cue + Log & MP3 CBR 320Kbps
Toshiba-EMI CP43-5773 | ~ 215 or 95 Mb | Scans(jpg) -> 23 Mb
Classic Rock / Pop Rock

After the harrowing Plastic Ono Band, John Lennon returned to calmer, more conventional territory with Imagine. While the album had a softer surface, it was only marginally less confessional than its predecessor. Underneath the sweet strings of "Jealous Guy" lies a broken and scared man, the jaunty "Crippled Inside" is a mocking assault at an acquaintance, and "Imagine" is a paean for peace in a world with no gods, possessions, or classes, where everyone is equal. And Lennon doesn't shy away from the hard rockers – "How Do You Sleep" is a scathing attack on Paul McCartney, "I Don't Want to Be a Soldier" is a hypnotic antiwar song, and "Give Me Some Truth" is bitter hard rock. If Imagine doesn't have the thematic sweep of Plastic Ono Band, it is nevertheless a remarkable collection of songs that Lennon would never be able to better again.

by Stephen Thomas Erlewine, allmusic
John Lennon - Imagine (1971):

John Lennon - Imagine (1971) [1989, Toshiba-EMI CP43-5773, Japan]

Tracklist:

01. Imagine 3:06
02. Crippled Inside 3:52
03. Jealous Guy 4:15
04. It's So Hard 2:29
05. I Don't Want To Be A Soldier Mama 6:08
06. Give Me Some Truth 3:16
07. Oh My Love 2:47
08. How Do You Sleep? 5:36
09. How? 3:45
10. Oh Yoko! 4:17

Exact Audio Copy V0.99 prebeta 5 from 4. May 2009

Отчёт EAC об извлечении, выполненном 10. января 2015, 19:07

John Lennon / Imagine

Дисковод: SONY BD RW BDX-S500U Adapter: 1 ID: 0

Режим чтения : Достоверность
Использование точного потока : Да
Отключение кэша аудио : Да
Использование указателей C2 : Нет

Коррекция смещения при чтении : 48
Способность читать области Lead-in и Lead-out : Нет
Заполнение пропущенных сэмплов тишиной : Да
Удаление блоков с тишиной в начале и конце : Нет
При вычислениях CRC использовались нулевые сэмплы : Да
Интерфейс : Встроенный Win32-интерфейс для Win NT/2000

Выходной формат : Внутренние WAV-операции
Формат сэмплов : 44.100 Гц; 16 бит; стерео


TOC извлечённого CD

Трек | Старт | Длительность | Начальный сектор | Конечный сектор
––––––––––––––––––––––––––––––––––-
1 | 0:00.00 | 3:05.50 | 0 | 13924
2 | 3:05.50 | 3:51.72 | 13925 | 31321
3 | 6:57.47 | 4:14.60 | 31322 | 50431
4 | 11:12.32 | 2:28.40 | 50432 | 61571
5 | 13:40.72 | 6:08.03 | 61572 | 89174
6 | 19:49.00 | 3:16.32 | 89175 | 103906
7 | 23:05.32 | 2:46.43 | 103907 | 116399
8 | 25:52.00 | 5:35.42 | 116400 | 141566
9 | 31:27.42 | 3:45.35 | 141567 | 158476
10 | 35:13.02 | 4:17.03 | 158477 | 177754


Характеристики диапазона извлечения и сообщения об ошибках

Выбранный диапазон

Имя файла F:\Lennon_CDs\Imagine\John Lennon - Imagine.wav

Пиковый уровень 94.4 %
Качество диапазона 100.0 %
CRC теста EE89B8B1
CRC копии EE89B8B1
Копирование… OK

Ошибок не произошло


AccurateRip: сводка

Трек 1 точное извлечение (доверие 3) [79E8889E]
Трек 2 точное извлечение (доверие 3) [46620E83]
Трек 3 точное извлечение (доверие 3) [559E6904]
Трек 4 точное извлечение (доверие 3) [F0E9D5D1]
Трек 5 точное извлечение (доверие 3) [6C03503F]
Трек 6 точное извлечение (доверие 3) [6E732663]
Трек 7 точное извлечение (доверие 3) [8F219056]
Трек 8 точное извлечение (доверие 3) [0769FB80]
Трек 9 точное извлечение (доверие 3) [1EDB9572]
Трек 10 точное извлечение (доверие 3) [86AF3539]

Все треки извлечены точно

Конец отчёта


[CUETools log; Date: 11.01.2015 23:10:16; Version: 2.1.5]
[CTDB TOCID: GymND.M5Xz7BkggeVb5SEP1dTzY-] found.
Track | CTDB Status
1 | (3/3) Accurately ripped
2 | (3/3) Accurately ripped
3 | (3/3) Accurately ripped
4 | (3/3) Accurately ripped
5 | (3/3) Accurately ripped
6 | (3/3) Accurately ripped
7 | (3/3) Accurately ripped
8 | (3/3) Accurately ripped
9 | (3/3) Accurately ripped
10 | (3/3) Accurately ripped
[AccurateRip ID: 000e6994-0074908e-8e09420a] found.
Track [ CRC | V2 ] Status
01 [79e8889e|f4722bc8] (3+0/3) Accurately ripped
02 [46620e83|bfdda9dc] (3+0/3) Accurately ripped
03 [559e6904|2e22639f] (3+0/3) Accurately ripped
04 [f0e9d5d1|230caa60] (3+0/3) Accurately ripped
05 [6c03503f|931f962c] (3+0/3) Accurately ripped
06 [6e732663|92136077] (3+0/3) Accurately ripped
07 [8f219056|1b82a457] (3+0/3) Accurately ripped
08 [0769fb80|1540fca7] (3+0/3) Accurately ripped
09 [1edb9572|99e1f3e8] (3+0/3) Accurately ripped
10 [86af3539|e0b1783d] (3+0/3) Accurately ripped
Offsetted by -667:
01 [f884db5d] (0/3) No match (V2 was not tested)
02 [0f294bd7] (0/3) No match (V2 was not tested)
03 [47d9361d] (0/3) No match (V2 was not tested)
04 [aa6281ab] (0/3) No match (V2 was not tested)
05 [574d3b46] (0/3) No match (V2 was not tested)
06 [ebd617c6] (0/3) No match (V2 was not tested)
07 [87828d7b] (0/3) No match (V2 was not tested)
08 [1e040d60] (0/3) No match (V2 was not tested)
09 [98769ec4] (0/3) No match (V2 was not tested)
10 [fbb03e7d] (0/3) No match (V2 was not tested)

Track Peak [ CRC32 ] [W/O NULL] [ LOG ]
– 94,4 [EE89B8B1] [0133AEE4] CRC32
01 67,9 [9935A919] [FEDD3180]
02 94,4 [99E14CD1] [472567D5]
03 77,6 [86572709] [79D7EECA]
04 66,9 [CD105546] [5B9018DB]
05 76,4 [7F67B4D7] [2823D809]
06 87,3 [F76AB5B8] [E9E8F688]
07 49,6 [7E81320E] [A1AC6B11]
08 81,1 [4FBA83C5] [7FE50763]
09 77,0 [BC306F1A] [C2668A64]
10 86,6 [2ED8BC9A] [0C596A4F]


John Lennon - Imagine (1971) [1989, Toshiba-EMI CP43-5773, Japan]

All thanks go to dafnaplus

John Lennon or John Lennon in my Blog

Download John Lennon - Imagine (1971):