Subcategories
Tags
Language
Tags

John Lennon / Plastic Ono Band - John Lennon / Plastic Ono Band (1970) {2021, The Ultimate Mixes}

Posted By: popsakov
John Lennon / Plastic Ono Band - John Lennon / Plastic Ono Band (1970) {2021, The Ultimate Mixes}

John Lennon / Plastic Ono Band - John Lennon / Plastic Ono Band (1970) {2021, The Ultimate Mixes}
2CD | EAC Rip | FLAC (Img) + Cue + Log ~ 635 Mb | Full Scans| 00:52:55 + 00:48:49 | RAR 5% Recovery
Pop Rock, Art Rock | Universal Music Group #0602507354442

John Lennon’s classic debut solo album plus 3 singles, featuring John Lennon, Ringo Starr, Klaus Voormann, George Harrison, Eric Clapton, Billy Preston & Phil Spector. Completely remixed from the original multitracks at Abbey Road Studios by triple GRAMMY Award winning engineer Paul Hicks, overseen by producer Yoko Ono Lennon. Contains Ultimate Mixes of the album, singles 'Give Peace A Chance', 'Cold Turkey' & 'Instant Karma! (We All Shine On)' plus a second CD containing outtakes of each.

The cliché about singer/songwriters is that they sing confessionals direct from their heart, but John Lennon exploded the myth behind that cliché, as well as many others, on his first official solo record, John Lennon/Plastic Ono Band. Inspired by his primal scream therapy with Dr. Arthur Janov, Lennon created a harrowing set of unflinchingly personal songs, laying out all of his fears and angers for everyone to hear. It was a revolutionary record – never before had a record been so explicitly introspective, and very few records made absolutely no concession to the audience's expectations, daring the listeners to meet all the artist's demands. Which isn't to say that the record is unlistenable. Lennon's songs range from tough rock & rollers to piano-based ballads and spare folk songs, and his melodies remain strong and memorable, which actually intensifies the pain and rage of the songs. Not much about Plastic Ono Band is hidden. Lennon presents everything on the surface, and the song titles – "Mother," "I Found Out," "Working Class Hero," "Isolation," "God," "My Mummy's Dead" – illustrate what each song is about, and chart his loss of faith in his parents, country, friends, fans, and idols. It's an unflinching document of bare-bones despair and pain, but for all its nihilism, it is ultimately life-affirming; it is unique not only in Lennon's catalog, but in all of popular music. Few albums are ever as harrowing, difficult, and rewarding as John Lennon/Plastic Ono Band.

~ Stephen Thomas Erlewine, All Music

***************

Track List CD1:

01. Mother - Ultimate Mix [5:36]
02. Hold On - Ultimate Mix [1:53]
03. I Found Out - Ultimate Mix [3:38]
04. Working Class Hero - Ultimate Mix [3:48]
05. Isolation - Ultimate Mix [2:53]
06. Remember - Ultimate Mix [4:33]
07. Love - Ultimate Mix [3:23]
08. Well Well Well - Ultimate Mix [5:58]
09. Loot At Me - Ultimate Mix [2:54]
10. God - Ultimate Mix [4:13]
11. My Mummy's Dead - Ultimate Mix [0:52]
12. Give Peace A Chance - Ultimate Mix [4:55]
13. Cold Turkey - Ultimate Mix [5:03]
14. Instant Karma! (We All Shine On) - Ultimate Mix [3:21]

Exact Audio Copy V1.3 from 2. September 2016

EAC extraction logfile from 23. May 2021, 8:09

John Lennon / Plastic Ono Band (The Ultimate Mixes) - Deluxe CD1

Used drive : PIONEER BD-RW BDR-212M Adapter: 1 ID: 0

Read mode : Secure
Utilize accurate stream : Yes
Defeat audio cache : Yes
Make use of C2 pointers : No

Read offset correction : 667
Overread into Lead-In and Lead-Out : No
Fill up missing offset samples with silence : Yes
Delete leading and trailing silent blocks : No
Null samples used in CRC calculations : Yes
Used interface : Native Win32 interface for Win NT & 2000

Used output format : Internal WAV Routines
Sample format : 44.100 Hz; 16 Bit; Stereo


TOC of the extracted CD

Track | Start | Length | Start sector | End sector
––––––––––––––––––––––––––––-
1 | 0:00.00 | 5:35.47 | 0 | 25171
2 | 5:35.47 | 1:52.10 | 25172 | 33581
3 | 7:27.57 | 3:37.66 | 33582 | 49922
4 | 11:05.48 | 3:47.67 | 49923 | 67014
5 | 14:53.40 | 2:52.17 | 67015 | 79931
6 | 17:45.57 | 4:32.64 | 79932 | 100395
7 | 22:18.46 | 3:22.44 | 100396 | 115589
8 | 25:41.15 | 5:57.17 | 115590 | 142381
9 | 31:38.32 | 2:53.45 | 142382 | 155401
10 | 34:32.02 | 4:12.56 | 155402 | 174357
11 | 38:44.58 | 0:51.68 | 174358 | 178250
12 | 39:36.51 | 4:54.26 | 178251 | 200326
13 | 44:31.02 | 5:02.54 | 200327 | 223030
14 | 49:33.56 | 3:20.49 | 223031 | 238079


Range status and errors

Selected range

Filename C:\Users\arthu\Desktop\John Lennon - Plastic Ono Band (The Ultimate Mixes) - Deluxe CD1.wav

Peak level 96.5 %
Extraction speed 7.3 X
Range quality 100.0 %
Test CRC E8EA5CCC
Copy CRC E8EA5CCC
Copy OK

No errors occurred


AccurateRip summary

Track 1 not present in database
Track 2 not present in database
Track 3 not present in database
Track 4 not present in database
Track 5 not present in database
Track 6 not present in database
Track 7 not present in database
Track 8 not present in database
Track 9 not present in database
Track 10 not present in database
Track 11 not present in database
Track 12 not present in database
Track 13 not present in database
Track 14 not present in database

None of the tracks are present in the AccurateRip database

End of status report

–– CUETools DB Plugin V2.1.6

[CTDB TOCID: wzaMvnvfgEPmFMc1AaDXF9V1xSo-] found
Submit result: wzaMvnvfgEPmFMc1AaDXF9V1xSo- has been confirmed
Track | CTDB Status
1 | (15/94) Accurately ripped
2 | (15/94) Accurately ripped
3 | (15/94) Accurately ripped
4 | (15/94) Accurately ripped
5 | (15/94) Accurately ripped
6 | (15/94) Accurately ripped
7 | (15/94) Accurately ripped
8 | (15/94) Accurately ripped
9 | (15/94) Accurately ripped
10 | (15/94) Accurately ripped
11 | (15/94) Accurately ripped
12 | (15/94) Accurately ripped
13 | (15/94) Accurately ripped
14 | (15/94) Accurately ripped


==== Log checksum 623D3CACC6516FD3152E0C9BD8BAF49CB0BACD8F2D21774B44C05FE82DB7C8D6 ====

Track List CD2:

01. Mother - Take 61 - Out-take - Ultimate Mix [4:19]
02. Hold On - Take 2 - Out-take - Ultimate Mix [2:12]
03. I Found Out - Take 1 - Out-take - Ultimate Mix [3:47]
04. Working Class Hero - Take 1 - Out-take - Ultimate Mix [3:51]
05. Isolation - Take 23 - Out-take - Ultimate Mix [2:52]
06. Remember - Rehearsal 1 - Out-take - Ultimate Mix [3:12]
07. Love - Take 6 - Out-take - Ultimate Mix [2:37]
08. Well Well Well - Take 2 - Out-take - Ultimate Mix [3:35]
09. Look At Me - Take 2 - Out-take - Ultimate Mix [2:51]
10. God - Take 27 - Out-take - Ultimate Mix [4:06]
11. My Mummy's Dead - Take 2 - Out-take - Ultimate Mix [1:16]
12. Give Peace A Chance - Take 2 - Out-take - Ultimate Mix [6:01]
13. Cold Turkey - Take 1 - Out-take - Ultimate Mix [5:24]
14. Instant Karma! (We All Shine On) - Take 1 - Out-take - Ultimate Mix [2:54]

Exact Audio Copy V1.3 from 2. September 2016

EAC extraction logfile from 23. May 2021, 8:53

John Lennon / Plastic Ono Band (The Ultimate Mixes) - Deluxe CD2

Used drive : PIONEER BD-RW BDR-212M Adapter: 1 ID: 0

Read mode : Secure
Utilize accurate stream : Yes
Defeat audio cache : Yes
Make use of C2 pointers : No

Read offset correction : 667
Overread into Lead-In and Lead-Out : No
Fill up missing offset samples with silence : Yes
Delete leading and trailing silent blocks : No
Null samples used in CRC calculations : Yes
Used interface : Native Win32 interface for Win NT & 2000

Used output format : Internal WAV Routines
Sample format : 44.100 Hz; 16 Bit; Stereo


TOC of the extracted CD

Track | Start | Length | Start sector | End sector
––––––––––––––––––––––––––––-
1 | 0:00.00 | 4:18.28 | 0 | 19377
2 | 4:18.28 | 2:11.18 | 19378 | 29220
3 | 6:29.46 | 3:46.19 | 29221 | 46189
4 | 10:15.65 | 3:50.01 | 46190 | 63440
5 | 14:05.66 | 2:51.27 | 63441 | 76292
6 | 16:57.18 | 3:11.33 | 76293 | 90650
7 | 20:08.51 | 2:36.31 | 90651 | 102381
8 | 22:45.07 | 3:34.58 | 102382 | 118489
9 | 26:19.65 | 2:50.08 | 118490 | 131247
10 | 29:09.73 | 4:05.40 | 131248 | 149662
11 | 33:15.38 | 1:15.07 | 149663 | 155294
12 | 34:30.45 | 6:00.59 | 155295 | 182353
13 | 40:31.29 | 5:23.57 | 182354 | 206635
14 | 45:55.11 | 2:53.35 | 206636 | 219645


Range status and errors

Selected range

Filename C:\Users\arthu\Desktop\John Lennon - Plastic Ono Band (The Ultimate Mixes) - Deluxe CD2.wav

Peak level 97.3 %
Extraction speed 7.1 X
Range quality 99.9 %
Test CRC 888C2B0F
Copy CRC 888C2B0F
Copy OK

No errors occurred


AccurateRip summary

Track 1 not present in database
Track 2 not present in database
Track 3 not present in database
Track 4 not present in database
Track 5 not present in database
Track 6 not present in database
Track 7 not present in database
Track 8 not present in database
Track 9 not present in database
Track 10 not present in database
Track 11 not present in database
Track 12 not present in database
Track 13 not present in database
Track 14 not present in database

None of the tracks are present in the AccurateRip database

End of status report

–– CUETools DB Plugin V2.1.6

[CTDB TOCID: jnK6zwbwJU36yC.1oesAvP52D.w-] found
Submit result: jnK6zwbwJU36yC.1oesAvP52D.w- has been confirmed
Track | CTDB Status
1 | (20/81) Accurately ripped
2 | (20/81) Accurately ripped
3 | (20/81) Accurately ripped
4 | (20/81) Accurately ripped
5 | (20/81) Accurately ripped
6 | (20/81) Accurately ripped
7 | (20/81) Accurately ripped
8 | (20/81) Accurately ripped
9 | (20/81) Accurately ripped
10 | (20/81) Accurately ripped
11 | (20/81) Accurately ripped
12 | (20/81) Accurately ripped
13 | (20/81) Accurately ripped
14 | (20/81) Accurately ripped


==== Log checksum 686778F5934F18DF18195EC29A13CC2B2F14EDC90C66C8A765B0D5ABCA4D5907 ====

All thanks go to London

>>> John Lennon in my Blog <<<