Subcategories
Tags
Language
Tags

John Martyn - The Apprentice (1990) {2007, Remastered Expanded Reissue}

Posted By: popsakov
John Martyn - The Apprentice (1990) {2007, Remastered Expanded Reissue}

John Martyn - The Apprentice (1990) {2007, Remastered Expanded Reissue}
EAC Rip | FLAC (Img) + Cue + Log ~ 471 Mb | MP3 CBR320 ~ 175 Mb
Full Scans ~ 84 Mb | RAR 5% Recovery
Soft Rock / Pop Rock / Art Rock / Blue-Eyed Soul / Smooth Jazz
One World Records #OW130CD

The Apprentice was mostly completed a full two years before it was released. Martyn's record label, Island, rejected the tapes of the songs in 1988, even though artistically they were not too far removed from his previous release, Piece by Piece. In fact, this album turned out to be the more cohesive of the two. Eventually released by Permanent Records, it's by and large a well-crafted collection of songs. Its only weaknesses are the sometimes too-strong dependence on synthesizers and the song "Deny This Love," which is Martyn doing bad dance music (and featuring a truly horrible a cappella introduction). Otherwise, it's an enjoyable album. "Look at the Girl" is a wistful follow-up to his 1974 song "My Baby Girl," while the haunting and moving "Patterns in the Rain" features Martyn's first recorded acoustic guitar playing in years (even though it's not very predominant). "Income Town" is an upbeat, more rock-oriented track, which has a sort of obscure in-joke added to it. Loud arena applause accompanies the beginning, though listeners will notice in the LP liner notes that the song is credited as being recorded at a club called the Green Banana in Toronto. Longtime fans will recognize this mythical club as a recurring Martyn joke. The Apprentice, along with Cooltide, caps off the smooth jazz sound of his '80s albums, and is one of the best of this series of works. One World issued a remastered edition in 2007.

~ Rob Caldwell, All Music

***************

John Martyn - The Apprentice (1990) {2007, Remastered Expanded Reissue}

John Martyn - The Apprentice (1990) {2007, Remastered Expanded Reissue}

Track List:

01. Live on Love [4:30]
02. The River [4:03]
03. Look at the Girl [4:35]
04. Income Town [4:27]
05. Send Me One Line [5:36]
06. Deny This Love [4:16]
07. Hold Me [4:51]
08. Upo [3:50]
09. The Apprentice [4:29]
10. The Moment [3:46]
11. Patterns in the Rain [3:45]
12. Deny This Love (remix) [bonus track] [3:53]
13. The Apprentice (live) [bonus track] [4:50]
14. The River (live) [bonus track] [4:49]
15. Send Me One Line (live) [bonus track] [5:47]
16. Look at the Girl (live) [bonus track] [5:29]

Personnel:
John Martyn - vocals, guitars
Foster Patterson - keyboards
Arran Ahmun - drums
Dave “Taif” Ball - bass on “Live On Love,” “The River”
Cohn Tully - saxophones on “The River,” “Upo”
Andy Shepherd - saxophone on “Deny This Love,” “Send Me One Line,” “Look at the Girl”
Danny Cummings - percussion, backing vocals
Danusia - backing vocals
Taj Wyzgowski - rhythm guitar on “Live On Love,” “The Apprentice”

Live Recordings, 1990:
John Martyn - guitar, vocals
Alan Thomson - bass guitar
Spencer Cozens - keyboards
Arran Ahmun - drums and percussion
Dave Lewis - saxophone

Exact Audio Copy V1.3 from 2. September 2016

EAC extraction logfile from 21. June 2019, 19:09

John Martyn / The Apprentice (2007 remastered, expanded reissue)

Used drive : ASUS BW-12D1S-U Adapter: 1 ID: 1

Read mode : Secure
Utilize accurate stream : Yes
Defeat audio cache : Yes
Make use of C2 pointers : No

Read offset correction : 667
Overread into Lead-In and Lead-Out : No
Fill up missing offset samples with silence : Yes
Delete leading and trailing silent blocks : No
Null samples used in CRC calculations : Yes
Used interface : Native Win32 interface for Win NT & 2000
Gap handling : Appended to previous track

Used output format : User Defined Encoder
Selected bitrate : 1024 kBit/s
Quality : High
Add ID3 tag : No
Command line compressor : C:\Program Files (x86)\Exact Audio Copy\FLAC\FLAC.EXE
Additional command line options : -V -8 -T "Genre=%genre%" -T "Artist=%artist%" -T "Title=%title%" -T "Album=%albumtitle%" -T "Date=%year%" -T "Tracknumber=%tracknr%" -T "Comment=%comment%" %source%


TOC of the extracted CD

Track | Start | Length | Start sector | End sector
––––––––––––––––––––––––––––-
1 | 0:00.00 | 4:30.04 | 0 | 20253
2 | 4:30.04 | 4:03.23 | 20254 | 38501
3 | 8:33.27 | 4:34.65 | 38502 | 59116
4 | 13:08.17 | 4:26.68 | 59117 | 79134
5 | 17:35.10 | 5:36.14 | 79135 | 104348
6 | 23:11.24 | 4:15.45 | 104349 | 123518
7 | 27:26.69 | 4:51.21 | 123519 | 145364
8 | 32:18.15 | 3:50.18 | 145365 | 162632
9 | 36:08.33 | 4:29.15 | 162633 | 182822
10 | 40:37.48 | 3:45.63 | 182823 | 199760
11 | 44:23.36 | 3:45.37 | 199761 | 216672
12 | 48:08.73 | 3:53.20 | 216673 | 234167
13 | 52:02.18 | 4:50.05 | 234168 | 255922
14 | 56:52.23 | 4:49.00 | 255923 | 277597
15 | 61:41.23 | 5:46.43 | 277598 | 303590
16 | 67:27.66 | 5:29.26 | 303591 | 328291


Track 1

Filename E:\Torrents of Autumn\Martyn, John [1990] The Apprentice (2007 remastered, expanded reissue)\01. Live on Love.wav

Pre-gap length 0:00:02.00

Peak level 96.9 %
Extraction speed 4.7 X
Track quality 100.0 %
Test CRC BA418FB6
Copy CRC BA418FB6
Accurately ripped (confidence 3) [326F41AB] (AR v2)
Copy OK

Track 2

Filename E:\Torrents of Autumn\Martyn, John [1990] The Apprentice (2007 remastered, expanded reissue)\02. The River.wav

Peak level 91.8 %
Extraction speed 5.1 X
Track quality 100.0 %
Test CRC 2484D65F
Copy CRC 2484D65F
Accurately ripped (confidence 3) [FD0DC673] (AR v2)
Copy OK

Track 3

Filename E:\Torrents of Autumn\Martyn, John [1990] The Apprentice (2007 remastered, expanded reissue)\03. Look at the Girl.wav

Peak level 90.9 %
Extraction speed 5.0 X
Track quality 99.9 %
Test CRC EEC5C026
Copy CRC EEC5C026
Accurately ripped (confidence 3) [E9C00FEB] (AR v2)
Copy OK

Track 4

Filename E:\Torrents of Autumn\Martyn, John [1990] The Apprentice (2007 remastered, expanded reissue)\04. Income Town.wav

Peak level 97.7 %
Extraction speed 5.3 X
Track quality 99.9 %
Test CRC 2B258E4A
Copy CRC 2B258E4A
Accurately ripped (confidence 3) [E09BF58A] (AR v2)
Copy OK

Track 5

Filename E:\Torrents of Autumn\Martyn, John [1990] The Apprentice (2007 remastered, expanded reissue)\05. Send Me One Line.wav

Peak level 86.7 %
Extraction speed 6.5 X
Track quality 100.0 %
Test CRC 5AE9C992
Copy CRC 5AE9C992
Accurately ripped (confidence 3) [40298600] (AR v2)
Copy OK

Track 6

Filename E:\Torrents of Autumn\Martyn, John [1990] The Apprentice (2007 remastered, expanded reissue)\06. Deny This Love.wav

Peak level 87.5 %
Extraction speed 6.1 X
Track quality 99.9 %
Test CRC 11A07D26
Copy CRC 11A07D26
Accurately ripped (confidence 3) [849C36A6] (AR v2)
Copy OK

Track 7

Filename E:\Torrents of Autumn\Martyn, John [1990] The Apprentice (2007 remastered, expanded reissue)\07. Hold Me.wav

Peak level 90.7 %
Extraction speed 7.2 X
Track quality 100.0 %
Test CRC AA1566C8
Copy CRC AA1566C8
Accurately ripped (confidence 3) [DC17554F] (AR v2)
Copy OK

Track 8

Filename E:\Torrents of Autumn\Martyn, John [1990] The Apprentice (2007 remastered, expanded reissue)\08. Upo.wav

Peak level 93.6 %
Extraction speed 7.3 X
Track quality 100.0 %
Test CRC 588C6E67
Copy CRC 588C6E67
Accurately ripped (confidence 3) [3753A7B6] (AR v2)
Copy OK

Track 9

Filename E:\Torrents of Autumn\Martyn, John [1990] The Apprentice (2007 remastered, expanded reissue)\09. The Apprentice.wav

Peak level 92.7 %
Extraction speed 7.6 X
Track quality 100.0 %
Test CRC C15C2845
Copy CRC C15C2845
Accurately ripped (confidence 3) [D7D11A1B] (AR v2)
Copy OK

Track 10

Filename E:\Torrents of Autumn\Martyn, John [1990] The Apprentice (2007 remastered, expanded reissue)\10. The Moment.wav

Peak level 97.7 %
Extraction speed 7.4 X
Track quality 100.0 %
Test CRC BEB9B137
Copy CRC BEB9B137
Accurately ripped (confidence 3) [8C73A17B] (AR v2)
Copy OK

Track 11

Filename E:\Torrents of Autumn\Martyn, John [1990] The Apprentice (2007 remastered, expanded reissue)\11. Patterns in the Rain.wav

Peak level 97.7 %
Extraction speed 7.6 X
Track quality 100.0 %
Test CRC D6414183
Copy CRC D6414183
Accurately ripped (confidence 3) [07D907D4] (AR v2)
Copy OK

Track 12

Filename E:\Torrents of Autumn\Martyn, John [1990] The Apprentice (2007 remastered, expanded reissue)\12. Deny This Love (remix) [bonus track].wav

Peak level 85.1 %
Extraction speed 7.7 X
Track quality 100.0 %
Test CRC E3723A38
Copy CRC E3723A38
Accurately ripped (confidence 3) [CCC642F9] (AR v2)
Copy OK

Track 13

Filename E:\Torrents of Autumn\Martyn, John [1990] The Apprentice (2007 remastered, expanded reissue)\13. The Apprentice (live) [bonus track].wav

Peak level 87.1 %
Extraction speed 8.2 X
Track quality 100.0 %
Test CRC 8581DAD7
Copy CRC 8581DAD7
Accurately ripped (confidence 3) [01861FAD] (AR v2)
Copy OK

Track 14

Filename E:\Torrents of Autumn\Martyn, John [1990] The Apprentice (2007 remastered, expanded reissue)\14. The River (live) [bonus track].wav

Peak level 84.9 %
Extraction speed 8.4 X
Track quality 100.0 %
Test CRC 5721DE26
Copy CRC 5721DE26
Accurately ripped (confidence 3) [4A2DBD87] (AR v2)
Copy OK

Track 15

Filename E:\Torrents of Autumn\Martyn, John [1990] The Apprentice (2007 remastered, expanded reissue)\15. Send Me One Line (live) [bonus track].wav

Peak level 81.9 %
Extraction speed 8.0 X
Track quality 99.9 %
Test CRC E3063DA8
Copy CRC E3063DA8
Accurately ripped (confidence 3) [C54C0BAF] (AR v2)
Copy OK

Track 16

Filename E:\Torrents of Autumn\Martyn, John [1990] The Apprentice (2007 remastered, expanded reissue)\16. Look at the Girl (live) [bonus track].wav

Peak level 88.5 %
Extraction speed 8.2 X
Track quality 99.9 %
Test CRC C78BBFE5
Copy CRC C78BBFE5
Accurately ripped (confidence 3) [BB6C281C] (AR v2)
Copy OK


All tracks accurately ripped

No errors occurred

End of status report

–– CUETools DB Plugin V2.1.6

[CTDB TOCID: FkaK1BaObHbumzvoMvZt_TZUxu0-] found
Submit result: FkaK1BaObHbumzvoMvZt_TZUxu0- has been confirmed
Track | CTDB Status
1 | (7/7) Accurately ripped
2 | (7/7) Accurately ripped
3 | (7/7) Accurately ripped
4 | (7/7) Accurately ripped
5 | (7/7) Accurately ripped
6 | (7/7) Accurately ripped
7 | (7/7) Accurately ripped
8 | (7/7) Accurately ripped
9 | (7/7) Accurately ripped
10 | (7/7) Accurately ripped
11 | (7/7) Accurately ripped
12 | (7/7) Accurately ripped
13 | (7/7) Accurately ripped
14 | (7/7) Accurately ripped
15 | (7/7) Accurately ripped
16 | (6/7) Accurately ripped


==== Log checksum DE324CF2882576C0FB87E1923666D8E1BB2E6EE16297489D0DDC57378620201D ====

[CUETools log; Date: 22.06.2019 13:01:45; Version: 2.1.6]
[CTDB TOCID: FkaK1BaObHbumzvoMvZt_TZUxu0-] found.
Track | CTDB Status
1 | (8/8) Accurately ripped
2 | (8/8) Accurately ripped
3 | (8/8) Accurately ripped
4 | (8/8) Accurately ripped
5 | (8/8) Accurately ripped
6 | (8/8) Accurately ripped
7 | (8/8) Accurately ripped
8 | (8/8) Accurately ripped
9 | (8/8) Accurately ripped
10 | (8/8) Accurately ripped
11 | (8/8) Accurately ripped
12 | (8/8) Accurately ripped
13 | (8/8) Accurately ripped
14 | (8/8) Accurately ripped
15 | (8/8) Accurately ripped
16 | (7/8) Accurately ripped
[AccurateRip ID: 0029aeb7-01f3e363-dc111910] found.
Track [ CRC | V2 ] Status
01 [fa511b82|326f41ab] (3+3/6) Accurately ripped
02 [ee4be9e0|fd0dc673] (3+3/6) Accurately ripped
03 [0a47aa2f|e9c00feb] (3+3/6) Accurately ripped
04 [9b1d7e4f|e09bf58a] (3+3/6) Accurately ripped
05 [958d11a8|40298600] (2+3/5) Accurately ripped
06 [59df32c8|849c36a6] (2+3/5) Accurately ripped
07 [86ffa81d|dc17554f] (2+3/5) Accurately ripped
08 [de8031ac|3753a7b6] (2+3/5) Accurately ripped
09 [a2b40566|d7d11a1b] (3+3/6) Accurately ripped
10 [c5706c0c|8c73a17b] (2+3/5) Accurately ripped
11 [a2ebba61|07d907d4] (2+3/5) Accurately ripped
12 [bca42e8f|ccc642f9] (2+3/5) Accurately ripped
13 [66758d05|01861fad] (2+3/5) Accurately ripped
14 [585417b1|4a2dbd87] (2+3/5) Accurately ripped
15 [76d50d2a|c54c0baf] (2+3/5) Accurately ripped
16 [2e51e004|bb6c281c] (2+3/5) Accurately ripped

Track Peak [ CRC32 ] [W/O NULL] [ LOG ]
– 97,7 [D619F22A] [478B435A]
01 96,9 [BA418FB6] [5F6AF0D7] CRC32
02 91,8 [2484D65F] [6777E2FC] CRC32
03 90,9 [EEC5C026] [43BA9D72] CRC32
04 97,7 [2B258E4A] [57A995C7] CRC32
05 86,7 [5AE9C992] [38DFE164] CRC32
06 87,5 [11A07D26] [B0884049] CRC32
07 90,7 [AA1566C8] [93A745DC] CRC32
08 93,6 [588C6E67] [1099CDC2] CRC32
09 92,7 [C15C2845] [55AFDF29] CRC32
10 97,7 [BEB9B137] [5DFB5110] CRC32
11 97,7 [D6414183] [8D0149A4] CRC32
12 85,1 [E3723A38] [064508EB] CRC32
13 87,1 [8581DAD7] [0D6844E0] CRC32
14 84,9 [5721DE26] [3241591A] CRC32
15 81,9 [E3063DA8] [449A1FC2] CRC32
16 88,5 [C78BBFE5] [2C332058] CRC32

John Martyn - The Apprentice (1990) {2007, Remastered Expanded Reissue}

All thanks go to DoobieBro

>>> John Martyn in my Blog <<<

Download from icerbox.com: