Subcategories

John Mayall & The Bluesbreakers - Blues Breakers With Eric Clapton (1966) [Japan, Deluxe Edition] Repost

Posted By: v3122
John Mayall & The Bluesbreakers - Blues Breakers With Eric Clapton (1966) [Japan, Deluxe Edition] Repost

John Mayall & The Bluesbreakers - Blues Breakers With Eric Clapton (1966)
XLD | Flac(Image) + Cue + Log & MP3 CBR 320Kbps
2CD | 2008 | Universal Music, UICY-93705/6 | ~ 645 or 323 Mb | Scans(jpg) -> 54 Mb
Blues, Blues-Rock

Bluesbreakers with Eric Clapton was Eric Clapton's first fully realized album as a blues guitarist – more than that, it was a seminal blues album of the 1960s, perhaps the best British blues album ever cut, and the best LP ever recorded by John Mayall's Bluesbreakers. Standing midway between Clapton's stint with the Yardbirds and the formation of Cream, this album featured the new guitar hero on a series of stripped-down blues standards, Mayall pieces, and one Mayall/Clapton composition, all of which had him stretching out in the idiom for the first time in the studio. This album was the culmination of a very successful year of playing with John Mayall, a fully realized blues creation, featuring sounds very close to the group's stage performances, and with no compromises. Credit has to go to producer Mike Vernon for the purity and simplicity of the record; most British producers of that era wouldn't have been able to get it recorded this way, much less released. One can hear the very direct influence of Buddy Guy and a handful of other American bluesmen in the playing. And lest anyone forget the rest of the quartet: future pop/rock superstar John McVie and drummer Hughie Flint provide a rock-hard rhythm section, and Mayall's organ playing, vocalizing, and second guitar are all of a piece with Clapton's work. His guitar naturally dominates most of this record, and he can also be heard taking his first lead vocal, but McVie and Flint are just as intense and give the tracks an extra level of steel-strung tension and power, none of which have diminished across several decades.

by Bruce Eder, allmusic
John Mayall & The Bluesbreakers - Blues Breakers With Eric Clapton (1966):

John Mayall & The Bluesbreakers - Blues Breakers With Eric Clapton (1966) [Japan, Deluxe Edition] Repost

Tracklist CD1:

MONO:
1. ALL YOUR LOVE
2. HIDEAWAY
3. LITTLE GIRL
4. ANOTHER MAN
5. DOUBLE CROSSIN' TIME
6. WHAT'D I SAY
7. KEY TO LOVE
8. PARCHMAN FARM
9. HAVE YOU HEARD
10. RAMBLIN' ON MY MIND
11. STEPPIN' OUT
12. IT AIN'T RIGHT

STEREO:
13. ALL YOUR LOVE
14. HIDEAWAY
15. LITTLE GIRL
16. ANOTHER MAN
17. DOUBLE CROSSIN' TIME
18. WHAT'D I SAY
19. KEY TO LOVE
20. PARCHMAN FARM
21. HAVE YOU HEARD
22. RAMBLIN' ON MY MIND
23. STEPPIN' OUT
24. IT AIN'T RIGHT

Converted to Image (CUETools 2.1.4)

X Lossless Decoder version 20100323 (116.7)

XLD extraction logfile from 2010-04-11 17:55:25 +0600

John Mayall & The Bluesbreakers / Blues Breakers With Eric Clapton

Used drive : OPTIARC DVD RW AD-5670S (revision 2AHH)

Use cdparanoia mode : YES (CDParanoia III 10.2 engine)
Disable audio cache : OK for the drive with cache less than 2750KB
Make use of C2 pointers : NO
Read offset correction : 48
Max retry count : 100

TOC of the extracted CD
Track | Start | Length | Start sector | End sector
––––––––––––––––––––––––––––-
1 | 00:00:00 | 03:37:05 | 0 | 16279
2 | 03:37:05 | 03:15:72 | 16280 | 30976
3 | 06:53:02 | 02:35:69 | 30977 | 42670
4 | 09:28:71 | 01:46:35 | 42671 | 50655
5 | 11:15:31 | 03:03:51 | 50656 | 64431
6 | 14:19:07 | 04:28:29 | 64432 | 84560
7 | 18:47:36 | 02:08:48 | 84561 | 94208
8 | 20:56:09 | 02:21:41 | 94209 | 104824
9 | 23:17:50 | 05:56:22 | 104825 | 131546
10 | 29:13:72 | 03:08:63 | 131547 | 145709
11 | 32:22:60 | 02:30:21 | 145710 | 156980
12 | 34:53:06 | 02:44:73 | 156981 | 169353
13 | 37:38:04 | 03:36:40 | 169354 | 185593
14 | 41:14:44 | 03:16:28 | 185594 | 200321
15 | 44:30:72 | 02:35:63 | 200322 | 212009
16 | 47:06:60 | 01:47:04 | 212010 | 220038
17 | 48:53:64 | 03:03:17 | 220039 | 233780
18 | 51:57:06 | 04:28:39 | 233781 | 253919
19 | 56:25:45 | 02:07:11 | 253920 | 263455
20 | 58:32:56 | 02:23:18 | 263456 | 274198
21 | 60:55:74 | 05:54:43 | 274199 | 300791
22 | 66:50:42 | 03:08:64 | 300792 | 314955
23 | 69:59:31 | 02:29:28 | 314956 | 326158
24 | 72:28:59 | 02:41:01 | 326159 | 338234


Track 01
Filename : /Users/gubarenko/Desktop/John Mayall & The Bluesbreakers - Blues Breakers With Eric Clapton/01 - All Your Love.flac

Pre-gap length : 00:02:00

CRC32 hash (test run) : E3F2877B
CRC32 hash : E3F2877B
CRC32 hash (skip zero) : C427E933
AccurateRip signature : 0600C1A4
->Accurately ripped! (confidence 26)
Statistics
Read error : 0
Skipped (treated as error) : 0
Edge jitter error (maybe fixed) : 0
Atom jitter error (maybe fixed) : 0
Drift error (maybe fixed) : 0
Dropped bytes error (maybe fixed) : 0
Duplicated bytes error (maybe fixed) : 0
Inconsistency in error sectors : 0

Track 02
Filename : /Users/gubarenko/Desktop/John Mayall & The Bluesbreakers - Blues Breakers With Eric Clapton/02 - Hideaway.flac

Pre-gap length : 00:01:60

CRC32 hash (test run) : 0F9B5098
CRC32 hash : 0F9B5098
CRC32 hash (skip zero) : 6C8C4B93
AccurateRip signature : 7F534C28
->Accurately ripped! (confidence 26)
Statistics
Read error : 0
Skipped (treated as error) : 0
Edge jitter error (maybe fixed) : 0
Atom jitter error (maybe fixed) : 0
Drift error (maybe fixed) : 0
Dropped bytes error (maybe fixed) : 0
Duplicated bytes error (maybe fixed) : 0
Inconsistency in error sectors : 0

Track 03
Filename : /Users/gubarenko/Desktop/John Mayall & The Bluesbreakers - Blues Breakers With Eric Clapton/03 - Little Girl.flac

Pre-gap length : 00:01:66

CRC32 hash (test run) : 47491AAB
CRC32 hash : 47491AAB
CRC32 hash (skip zero) : 363DA6C0
AccurateRip signature : 4BF2AAA2
->Accurately ripped! (confidence 26)
Statistics
Read error : 0
Skipped (treated as error) : 0
Edge jitter error (maybe fixed) : 0
Atom jitter error (maybe fixed) : 0
Drift error (maybe fixed) : 0
Dropped bytes error (maybe fixed) : 0
Duplicated bytes error (maybe fixed) : 0
Inconsistency in error sectors : 0

Track 04
Filename : /Users/gubarenko/Desktop/John Mayall & The Bluesbreakers - Blues Breakers With Eric Clapton/04 - Another Man.flac

Pre-gap length : 00:01:58

CRC32 hash (test run) : 118FE2DC
CRC32 hash : 118FE2DC
CRC32 hash (skip zero) : 01A14FA3
AccurateRip signature : 0CFFF1A2
->Accurately ripped! (confidence 26)
Statistics
Read error : 0
Skipped (treated as error) : 0
Edge jitter error (maybe fixed) : 0
Atom jitter error (maybe fixed) : 0
Drift error (maybe fixed) : 0
Dropped bytes error (maybe fixed) : 0
Duplicated bytes error (maybe fixed) : 0
Inconsistency in error sectors : 0

Track 05
Filename : /Users/gubarenko/Desktop/John Mayall & The Bluesbreakers - Blues Breakers With Eric Clapton/05 - Double Crossing Time.flac

Pre-gap length : 00:01:61

CRC32 hash (test run) : 2949F7ED
CRC32 hash : 2949F7ED
CRC32 hash (skip zero) : ACB1ABE2
AccurateRip signature : 51174D26
->Accurately ripped! (confidence 26)
Statistics
Read error : 0
Skipped (treated as error) : 0
Edge jitter error (maybe fixed) : 0
Atom jitter error (maybe fixed) : 0
Drift error (maybe fixed) : 0
Dropped bytes error (maybe fixed) : 0
Duplicated bytes error (maybe fixed) : 0
Inconsistency in error sectors : 0

Track 06
Filename : /Users/gubarenko/Desktop/John Mayall & The Bluesbreakers - Blues Breakers With Eric Clapton/06 - What'd I Say.flac

Pre-gap length : 00:01:46

CRC32 hash (test run) : FCEC1956
CRC32 hash : FCEC1956
CRC32 hash (skip zero) : 83B7EF84
AccurateRip signature : 8452980A
->Accurately ripped! (confidence 26)
Statistics
Read error : 0
Skipped (treated as error) : 0
Edge jitter error (maybe fixed) : 0
Atom jitter error (maybe fixed) : 0
Drift error (maybe fixed) : 0
Dropped bytes error (maybe fixed) : 0
Duplicated bytes error (maybe fixed) : 0
Inconsistency in error sectors : 0

Track 07
Filename : /Users/gubarenko/Desktop/John Mayall & The Bluesbreakers - Blues Breakers With Eric Clapton/07 - Key to Love.flac

Pre-gap length : 00:01:53

CRC32 hash (test run) : C3234A97
CRC32 hash : C3234A97
CRC32 hash (skip zero) : C8E5AA87
AccurateRip signature : 24B0E4FA
->Accurately ripped! (confidence 26)
Statistics
Read error : 0
Skipped (treated as error) : 0
Edge jitter error (maybe fixed) : 0
Atom jitter error (maybe fixed) : 0
Drift error (maybe fixed) : 0
Dropped bytes error (maybe fixed) : 0
Duplicated bytes error (maybe fixed) : 0
Inconsistency in error sectors : 0

Track 08
Filename : /Users/gubarenko/Desktop/John Mayall & The Bluesbreakers - Blues Breakers With Eric Clapton/08 - Parchman Farm.flac

Pre-gap length : 00:01:55

CRC32 hash (test run) : 3256A5D0
CRC32 hash : 3256A5D0
CRC32 hash (skip zero) : 8C02741D
AccurateRip signature : EB8DB017
->Accurately ripped! (confidence 24)
Statistics
Read error : 0
Skipped (treated as error) : 0
Edge jitter error (maybe fixed) : 0
Atom jitter error (maybe fixed) : 0
Drift error (maybe fixed) : 0
Dropped bytes error (maybe fixed) : 0
Duplicated bytes error (maybe fixed) : 0
Inconsistency in error sectors : 0

Track 09
Filename : /Users/gubarenko/Desktop/John Mayall & The Bluesbreakers - Blues Breakers With Eric Clapton/09 - Have You Heard.flac

Pre-gap length : 00:01:57

CRC32 hash (test run) : 5779AD54
CRC32 hash : 5779AD54
CRC32 hash (skip zero) : 78BB91BA
AccurateRip signature : EA1145F8
->Accurately ripped! (confidence 26)
Statistics
Read error : 0
Skipped (treated as error) : 0
Edge jitter error (maybe fixed) : 0
Atom jitter error (maybe fixed) : 0
Drift error (maybe fixed) : 0
Dropped bytes error (maybe fixed) : 0
Duplicated bytes error (maybe fixed) : 0
Inconsistency in error sectors : 0

Track 10
Filename : /Users/gubarenko/Desktop/John Mayall & The Bluesbreakers - Blues Breakers With Eric Clapton/10 - Ramblin' On My Mind.flac

Pre-gap length : 00:01:63

CRC32 hash (test run) : 7935157C
CRC32 hash : 7935157C
CRC32 hash (skip zero) : 5985FD1A
AccurateRip signature : 4BE36642
->Accurately ripped! (confidence 26)
Statistics
Read error : 0
Skipped (treated as error) : 0
Edge jitter error (maybe fixed) : 0
Atom jitter error (maybe fixed) : 0
Drift error (maybe fixed) : 0
Dropped bytes error (maybe fixed) : 0
Duplicated bytes error (maybe fixed) : 0
Inconsistency in error sectors : 0

Track 11
Filename : /Users/gubarenko/Desktop/John Mayall & The Bluesbreakers - Blues Breakers With Eric Clapton/11 - Steppin' Out.flac

Pre-gap length : 00:01:56

CRC32 hash (test run) : 2E3B7AA2
CRC32 hash : 2E3B7AA2
CRC32 hash (skip zero) : 1F7487C0
AccurateRip signature : DAC33E81
->Accurately ripped! (confidence 26)
Statistics
Read error : 0
Skipped (treated as error) : 0
Edge jitter error (maybe fixed) : 1
Atom jitter error (maybe fixed) : 0
Drift error (maybe fixed) : 0
Dropped bytes error (maybe fixed) : 1
Duplicated bytes error (maybe fixed) : 1
Inconsistency in error sectors : 0

Track 12
Filename : /Users/gubarenko/Desktop/John Mayall & The Bluesbreakers - Blues Breakers With Eric Clapton/12 - It Ain't Right.flac

Pre-gap length : 00:01:61

CRC32 hash (test run) : E480AFE1
CRC32 hash : E480AFE1
CRC32 hash (skip zero) : 5548FF00
AccurateRip signature : 245DFE7B
->Accurately ripped! (confidence 26)
Statistics
Read error : 0
Skipped (treated as error) : 0
Edge jitter error (maybe fixed) : 0
Atom jitter error (maybe fixed) : 0
Drift error (maybe fixed) : 0
Dropped bytes error (maybe fixed) : 0
Duplicated bytes error (maybe fixed) : 0
Inconsistency in error sectors : 0

Track 13
Filename : /Users/gubarenko/Desktop/John Mayall & The Bluesbreakers - Blues Breakers With Eric Clapton/13 - All Your Love.flac

Pre-gap length : 00:03:61

CRC32 hash (test run) : D2217D1F
CRC32 hash : D2217D1F
CRC32 hash (skip zero) : E0FC07F0
AccurateRip signature : DC444E5F
->Accurately ripped! (confidence 27)
Statistics
Read error : 0
Skipped (treated as error) : 0
Edge jitter error (maybe fixed) : 0
Atom jitter error (maybe fixed) : 0
Drift error (maybe fixed) : 0
Dropped bytes error (maybe fixed) : 0
Duplicated bytes error (maybe fixed) : 0
Inconsistency in error sectors : 0

Track 14
Filename : /Users/gubarenko/Desktop/John Mayall & The Bluesbreakers - Blues Breakers With Eric Clapton/14 - Hideaway.flac

Pre-gap length : 00:01:60

CRC32 hash (test run) : E5AFA4F2
CRC32 hash : E5AFA4F2
CRC32 hash (skip zero) : B9C28D7E
AccurateRip signature : 7C0D6B8A
->Accurately ripped! (confidence 28)
Statistics
Read error : 0
Skipped (treated as error) : 0
Edge jitter error (maybe fixed) : 0
Atom jitter error (maybe fixed) : 0
Drift error (maybe fixed) : 0
Dropped bytes error (maybe fixed) : 0
Duplicated bytes error (maybe fixed) : 0
Inconsistency in error sectors : 0

Track 15
Filename : /Users/gubarenko/Desktop/John Mayall & The Bluesbreakers - Blues Breakers With Eric Clapton/15 - Little Girl.flac

Pre-gap length : 00:01:67

CRC32 hash (test run) : 0619BBC7
CRC32 hash : 0619BBC7
CRC32 hash (skip zero) : 99677597
AccurateRip signature : A55B1F51
->Accurately ripped! (confidence 28)
Statistics
Read error : 0
Skipped (treated as error) : 0
Edge jitter error (maybe fixed) : 0
Atom jitter error (maybe fixed) : 0
Drift error (maybe fixed) : 0
Dropped bytes error (maybe fixed) : 0
Duplicated bytes error (maybe fixed) : 0
Inconsistency in error sectors : 0

Track 16
Filename : /Users/gubarenko/Desktop/John Mayall & The Bluesbreakers - Blues Breakers With Eric Clapton/16 - Another Man.flac

Pre-gap length : 00:01:65

CRC32 hash (test run) : 66AA908D
CRC32 hash : 66AA908D
CRC32 hash (skip zero) : F700E593
AccurateRip signature : D02A499A
->Accurately ripped! (confidence 28)
Statistics
Read error : 0
Skipped (treated as error) : 0
Edge jitter error (maybe fixed) : 0
Atom jitter error (maybe fixed) : 0
Drift error (maybe fixed) : 0
Dropped bytes error (maybe fixed) : 0
Duplicated bytes error (maybe fixed) : 0
Inconsistency in error sectors : 0

Track 17
Filename : /Users/gubarenko/Desktop/John Mayall & The Bluesbreakers - Blues Breakers With Eric Clapton/17 - Double Crossing Time.flac

Pre-gap length : 00:01:61

CRC32 hash (test run) : 6A6CC486
CRC32 hash : 6A6CC486
CRC32 hash (skip zero) : E2C11C2D
AccurateRip signature : BCC5A949
->Accurately ripped! (confidence 29)
Statistics
Read error : 0
Skipped (treated as error) : 0
Edge jitter error (maybe fixed) : 0
Atom jitter error (maybe fixed) : 0
Drift error (maybe fixed) : 0
Dropped bytes error (maybe fixed) : 0
Duplicated bytes error (maybe fixed) : 0
Inconsistency in error sectors : 0

Track 18
Filename : /Users/gubarenko/Desktop/John Mayall & The Bluesbreakers - Blues Breakers With Eric Clapton/18 - What'd I Say.flac

Pre-gap length : 00:01:63

CRC32 hash (test run) : 2A5B3777
CRC32 hash : 2A5B3777
CRC32 hash (skip zero) : AE38EE21
AccurateRip signature : D07F4638
->Accurately ripped! (confidence 29)
Statistics
Read error : 0
Skipped (treated as error) : 0
Edge jitter error (maybe fixed) : 0
Atom jitter error (maybe fixed) : 0
Drift error (maybe fixed) : 0
Dropped bytes error (maybe fixed) : 0
Duplicated bytes error (maybe fixed) : 0
Inconsistency in error sectors : 0

Track 19
Filename : /Users/gubarenko/Desktop/John Mayall & The Bluesbreakers - Blues Breakers With Eric Clapton/19 - Key to Love.flac

Pre-gap length : 00:01:55

CRC32 hash (test run) : E2615457
CRC32 hash : E2615457
CRC32 hash (skip zero) : 8B1D356B
AccurateRip signature : 645AE2C6
->Accurately ripped! (confidence 30)
Statistics
Read error : 0
Skipped (treated as error) : 0
Edge jitter error (maybe fixed) : 0
Atom jitter error (maybe fixed) : 0
Drift error (maybe fixed) : 0
Dropped bytes error (maybe fixed) : 0
Duplicated bytes error (maybe fixed) : 0
Inconsistency in error sectors : 0

Track 20
Filename : /Users/gubarenko/Desktop/John Mayall & The Bluesbreakers - Blues Breakers With Eric Clapton/20 - Parchman Farm.flac

Pre-gap length : 00:01:61

CRC32 hash (test run) : 55B79E7A
CRC32 hash : 55B79E7A
CRC32 hash (skip zero) : 855F8F28
AccurateRip signature : F53C1B0E
->Accurately ripped! (confidence 29)
Statistics
Read error : 0
Skipped (treated as error) : 0
Edge jitter error (maybe fixed) : 0
Atom jitter error (maybe fixed) : 0
Drift error (maybe fixed) : 0
Dropped bytes error (maybe fixed) : 0
Duplicated bytes error (maybe fixed) : 0
Inconsistency in error sectors : 0

Track 21
Filename : /Users/gubarenko/Desktop/John Mayall & The Bluesbreakers - Blues Breakers With Eric Clapton/21 - Have You Heard.flac

Pre-gap length : 00:01:60

CRC32 hash (test run) : EF9C0937
CRC32 hash : EF9C0937
CRC32 hash (skip zero) : 73377B6E
AccurateRip signature : 862F76B3
->Accurately ripped! (confidence 30)
Statistics
Read error : 0
Skipped (treated as error) : 0
Edge jitter error (maybe fixed) : 0
Atom jitter error (maybe fixed) : 0
Drift error (maybe fixed) : 0
Dropped bytes error (maybe fixed) : 0
Duplicated bytes error (maybe fixed) : 0
Inconsistency in error sectors : 0

Track 22
Filename : /Users/gubarenko/Desktop/John Mayall & The Bluesbreakers - Blues Breakers With Eric Clapton/22 - Ramblin' On My Mind.flac

Pre-gap length : 00:01:72

CRC32 hash (test run) : 2F5A089F
CRC32 hash : 2F5A089F
CRC32 hash (skip zero) : B140BEC8
AccurateRip signature : 6CF6FDFD
->Accurately ripped! (confidence 29)
Statistics
Read error : 0
Skipped (treated as error) : 0
Edge jitter error (maybe fixed) : 0
Atom jitter error (maybe fixed) : 0
Drift error (maybe fixed) : 0
Dropped bytes error (maybe fixed) : 0
Duplicated bytes error (maybe fixed) : 0
Inconsistency in error sectors : 0

Track 23
Filename : /Users/gubarenko/Desktop/John Mayall & The Bluesbreakers - Blues Breakers With Eric Clapton/23 - Steppin' Out.flac

Pre-gap length : 00:01:62

CRC32 hash (test run) : C04D926F
CRC32 hash : C04D926F
CRC32 hash (skip zero) : 71F7147B
AccurateRip signature : 9720E996
->Accurately ripped! (confidence 29)
Statistics
Read error : 0
Skipped (treated as error) : 0
Edge jitter error (maybe fixed) : 0
Atom jitter error (maybe fixed) : 0
Drift error (maybe fixed) : 0
Dropped bytes error (maybe fixed) : 0
Duplicated bytes error (maybe fixed) : 0
Inconsistency in error sectors : 0

Track 24
Filename : /Users/gubarenko/Desktop/John Mayall & The Bluesbreakers - Blues Breakers With Eric Clapton/24 - It Ain't Right.flac

Pre-gap length : 00:01:59

CRC32 hash (test run) : 00EFC6CD
CRC32 hash : 00EFC6CD
CRC32 hash (skip zero) : A4588CDA
AccurateRip signature : 7488DC91
->Accurately ripped! (confidence 27)
Statistics
Read error : 0
Skipped (treated as error) : 0
Edge jitter error (maybe fixed) : 0
Atom jitter error (maybe fixed) : 0
Drift error (maybe fixed) : 0
Dropped bytes error (maybe fixed) : 0
Duplicated bytes error (maybe fixed) : 0
Inconsistency in error sectors : 0

No errors occurred

End of status report


[CUETools log; Date: 04.06.2018 15:20:13; Version: 2.1.5]
[AccurateRip ID: 00405372-045c7ae3-63119d18] found.
Track [ CRC | V2 ] Status
01 [0600c1a4|21a94ceb] (060+113/173) Accurately ripped
02 [7f534c28|47b3c396] (060+113/175) Accurately ripped
03 [4bf2aaa2|e356ee60] (060+113/173) Accurately ripped
04 [0cfff1a2|fbcb618b] (060+113/173) Accurately ripped
05 [51174d26|ca37de64] (060+111/171) Accurately ripped
06 [8452980a|e5aefdf1] (060+111/171) Accurately ripped
07 [24b0e4fa|4c19a5ae] (060+113/173) Accurately ripped
08 [eb8db017|bfca5fd6] (055+107/164) Accurately ripped
09 [ea1145f8|70d821b3] (060+113/173) Accurately ripped
10 [4be36642|2b55399a] (060+113/173) Accurately ripped
11 [dac33e81|159b454b] (060+113/175) Accurately ripped
12 [245dfe7b|f8c4a415] (060+112/172) Accurately ripped
13 [dc444e5f|e1232d6e] (060+110/170) Accurately ripped
14 [7c0d6b8a|28d06b13] (062+112/174) Accurately ripped
15 [a55b1f51|5b639554] (062+112/174) Accurately ripped
16 [d02a499a|5bf2611c] (063+112/175) Accurately ripped
17 [bcc5a949|bcd336fc] (064+112/176) Accurately ripped
18 [d07f4638|acbbd8a6] (064+112/176) Accurately ripped
19 [645ae2c6|632b46ef] (064+111/175) Accurately ripped
20 [f53c1b0e|2d95ce01] (064+112/176) Accurately ripped
21 [862f76b3|04766203] (065+112/177) Accurately ripped
22 [6cf6fdfd|0cd5228e] (064+111/175) Accurately ripped
23 [9720e996|b149aea1] (063+111/174) Accurately ripped
24 [7488dc91|0a07c09b] (060+112/172) Accurately ripped
Offsetted by -66:
01 [16598618] (000/173) No match
02 [0c807c68] (000/175) No match (V2 was not tested)
03 [d6e76058] (000/173) No match
04 [09ae57b6] (000/173) No match
05 [17c65578] (000/171) No match
06 [3c9911ec] (000/171) No match
07 [b15df010] (000/173) No match
08 [1984337f] (000/164) No match
09 [b71c7294] (000/173) No match
10 [614edef8] (000/173) No match
11 [f6d5ae35] (000/175) No match (V2 was not tested)
12 [c16c1abf] (000/172) No match
13 [8e9f20c7] (000/170) No match
14 [20205c44] (000/174) No match
15 [c4ccb72b] (000/174) No match
16 [a9ae8198] (000/175) No match
17 [98f9c6cd] (000/176) No match
18 [9c677444] (000/176) No match
19 [dc9a83c0] (000/175) No match
20 [099c5870] (000/176) No match
21 [19e84e91] (000/177) No match
22 [5fd61e37] (000/175) No match
23 [2c8d73f8] (000/174) No match
24 [a2e7ab33] (000/172) No match

Track Peak [ CRC32 ] [W/O NULL]
– 98,8 [7BEFAD78] [98C54A50]
01 98,8 [E3F2877B] [C427E933]
02 98,8 [0F9B5098] [6C8C4B93]
03 98,8 [47491AAB] [363DA6C0]
04 91,8 [118FE2DC] [01A14FA3]
05 98,8 [2949F7ED] [ACB1ABE2]
06 98,8 [FCEC1956] [83B7EF84]
07 98,8 [C3234A97] [C8E5AA87]
08 98,8 [3256A5D0] [8C02741D]
09 98,8 [5779AD54] [78BB91BA]
10 95,4 [7935157C] [5985FD1A]
11 97,9 [2E3B7AA2] [1F7487C0]
12 98,8 [E480AFE1] [5548FF00]
13 98,8 [D2217D1F] [E0FC07F0]
14 98,8 [E5AFA4F2] [B9C28D7E]
15 98,8 [0619BBC7] [99677597]
16 98,3 [66AA908D] [F700E593]
17 98,8 [6A6CC486] [E2C11C2D]
18 96,0 [2A5B3777] [AE38EE21]
19 98,8 [E2615457] [8B1D356B]
20 98,8 [55B79E7A] [855F8F28]
21 95,7 [EF9C0937] [73377B6E]
22 94,7 [2F5A089F] [B140BEC8]
23 98,7 [C04D926F] [71F7147B]
24 98,8 [00EFC6CD] [A4588CDA]


John Mayall & The Bluesbreakers - Blues Breakers With Eric Clapton (1966) [Japan, Deluxe Edition] Repost

Tracklist CD2:

25. CRAWLING UP A HILL(BBC SATURDAY CLUB SESSION)
26. CROCODILE WALK(BBC SATURDAY CLUB SESSION)
27. BYE BYE BIRD(BBC SATURDAY CLUB SESSION)
28. I'M YOUR WITCHDOCTOR
29. TELEPHONE BLUES
30. BERNARD JENKINS
31. LONELY YEARS
32. CHEATIN' WOMAN(BBC SATURDAY CLUB SESSION)
33. NOWHERE TO TURN(BBC SATURDAY CLUB SESSION)
34. I'M YOUR WITCHDOCTOR(BBC SATURDAY CLUB SESSION)
35. ON TOP OF THE WORLD(STEREO MIX)
36. KEY TO LOVE(BBC SATURDAY CLUB SESSION)
37. ON TOP OF THE WORLD(BBC SATURDAY CLUB SESSION)
38. THEY CALL IT STORMY MONDAY(LIVE AT THE FLAMINGO CLUB)
39. INTRO(LIVE)/MAUDIE(LIVE)
40. IT HURTS TO BE IN LOVE(LIVE)
41. HAVE YOU EVER LOVED A WOMAN(LIVE)
42. BYE BYE BIRD(LIVE)
43. HOOCHIE COOCHIE MAN(LIVE)

Converted to Image (CUETools 2.1.4)

X Lossless Decoder version 20100323 (116.7)

XLD extraction logfile from 2010-04-11 18:26:38 +0600

John Mayall & The Blues Breakers / Blues Breakers With Eric Clapton

Used drive : OPTIARC DVD RW AD-5670S (revision 2AHH)

Use cdparanoia mode : YES (CDParanoia III 10.2 engine)
Disable audio cache : OK for the drive with cache less than 2750KB
Make use of C2 pointers : NO
Read offset correction : 48
Max retry count : 100

TOC of the extracted CD
Track | Start | Length | Start sector | End sector
––––––––––––––––––––––––––––-
1 | 00:00:00 | 02:08:39 | 0 | 9638
2 | 02:08:39 | 02:23:69 | 9639 | 20432
3 | 04:32:33 | 02:49:37 | 20433 | 33144
4 | 07:21:70 | 02:11:19 | 33145 | 42988
5 | 09:33:14 | 03:57:73 | 42989 | 60836
6 | 13:31:12 | 03:49:55 | 60837 | 78066
7 | 17:20:67 | 03:19:24 | 78067 | 93015
8 | 20:40:16 | 02:03:55 | 93016 | 102295
9 | 22:43:71 | 01:42:16 | 102296 | 109961
10 | 24:26:12 | 02:10:28 | 109962 | 119739
11 | 26:36:40 | 02:50:68 | 119740 | 132557
12 | 29:27:33 | 02:02:58 | 132558 | 141765
13 | 31:30:16 | 02:34:06 | 141766 | 153321
14 | 34:04:22 | 04:35:51 | 153322 | 173997
15 | 38:39:73 | 02:27:34 | 173998 | 185056
16 | 41:07:32 | 03:22:68 | 185057 | 200274
17 | 44:30:25 | 06:44:12 | 200275 | 230586
18 | 51:14:37 | 03:51:34 | 230587 | 247945
19 | 55:05:71 | 03:53:51 | 247946 | 265471

List of alternate offset correction values
# | Absolute | Relative | Confidence
–––––––––––––––––––––
1 | 42 | -6 | 29

Track 01
Filename : /Users/gubarenko/Desktop/John Mayall & The Blues Breakers - Blues Breakers With Eric Clapton/01 - Crawling Up A Hill (Live At BBC '65) (Bonus).flac

Pre-gap length : 00:02:00

CRC32 hash (test run) : 7CB280CD
CRC32 hash : 7CB280CD
CRC32 hash (skip zero) : 136B5ADB
AccurateRip signature : 96D91B86
->Accurately ripped! (confidence 29)
Statistics
Read error : 0
Skipped (treated as error) : 0
Edge jitter error (maybe fixed) : 0
Atom jitter error (maybe fixed) : 1
Drift error (maybe fixed) : 0
Dropped bytes error (maybe fixed) : 0
Duplicated bytes error (maybe fixed) : 0
Inconsistency in error sectors : 0

Track 02
Filename : /Users/gubarenko/Desktop/John Mayall & The Blues Breakers - Blues Breakers With Eric Clapton/02 - Crocodile Walk (Live At BBC '65) (Bonus).flac

Pre-gap length : 00:01:67

CRC32 hash (test run) : D9E686AA
CRC32 hash : D9E686AA
CRC32 hash (skip zero) : 97DB1822
AccurateRip signature : F266CA87
->Accurately ripped! (confidence 29)
Statistics
Read error : 0
Skipped (treated as error) : 0
Edge jitter error (maybe fixed) : 1
Atom jitter error (maybe fixed) : 0
Drift error (maybe fixed) : 0
Dropped bytes error (maybe fixed) : 1
Duplicated bytes error (maybe fixed) : 1
Inconsistency in error sectors : 0

Track 03
Filename : /Users/gubarenko/Desktop/John Mayall & The Blues Breakers - Blues Breakers With Eric Clapton/03 - Bye Bye Bird (Live At BBC '65) (Bonus).flac

Pre-gap length : 00:01:54

CRC32 hash (test run) : 1E9535F7
CRC32 hash : 1E9535F7
CRC32 hash (skip zero) : 1830E2E4
AccurateRip signature : F3B78641
->Accurately ripped! (confidence 29)
Statistics
Read error : 0
Skipped (treated as error) : 0
Edge jitter error (maybe fixed) : 2
Atom jitter error (maybe fixed) : 1
Drift error (maybe fixed) : 0
Dropped bytes error (maybe fixed) : 1
Duplicated bytes error (maybe fixed) : 1
Inconsistency in error sectors : 0

Track 04
Filename : /Users/gubarenko/Desktop/John Mayall & The Blues Breakers - Blues Breakers With Eric Clapton/04 - I'm Your Witchdoctor (Bonus).flac

Pre-gap length : 00:01:66

CRC32 hash (test run) : A3F285EB
CRC32 hash : A3F285EB
CRC32 hash (skip zero) : B02D90B3
AccurateRip signature : 03F273CA
->Accurately ripped! (confidence 29)
Statistics
Read error : 0
Skipped (treated as error) : 0
Edge jitter error (maybe fixed) : 1
Atom jitter error (maybe fixed) : 0
Drift error (maybe fixed) : 0
Dropped bytes error (maybe fixed) : 1
Duplicated bytes error (maybe fixed) : 1
Inconsistency in error sectors : 0

Track 05
Filename : /Users/gubarenko/Desktop/John Mayall & The Blues Breakers - Blues Breakers With Eric Clapton/05 - Telephone Blues (Bonus).flac

Pre-gap length : 00:01:56

CRC32 hash (test run) : E2B073F1
CRC32 hash : E2B073F1
CRC32 hash (skip zero) : 7FE5FCE2
AccurateRip signature : E9543CB2
->Accurately ripped! (confidence 29)
Statistics
Read error : 0
Skipped (treated as error) : 0
Edge jitter error (maybe fixed) : 1
Atom jitter error (maybe fixed) : 1
Drift error (maybe fixed) : 0
Dropped bytes error (maybe fixed) : 0
Duplicated bytes error (maybe fixed) : 0
Inconsistency in error sectors : 0

Track 06
Filename : /Users/gubarenko/Desktop/John Mayall & The Blues Breakers - Blues Breakers With Eric Clapton/06 - Bernard Jenkins (Bonus).flac

Pre-gap length : 00:01:47

CRC32 hash (test run) : 059F37D3
CRC32 hash : 059F37D3
CRC32 hash (skip zero) : 08CC2720
AccurateRip signature : ED943293
->Accurately ripped! (confidence 29)
Statistics
Read error : 0
Skipped (treated as error) : 0
Edge jitter error (maybe fixed) : 0
Atom jitter error (maybe fixed) : 0
Drift error (maybe fixed) : 0
Dropped bytes error (maybe fixed) : 0
Duplicated bytes error (maybe fixed) : 0
Inconsistency in error sectors : 0

Track 07
Filename : /Users/gubarenko/Desktop/John Mayall & The Blues Breakers - Blues Breakers With Eric Clapton/07 - Lonely Years (Bonus).flac

Pre-gap length : 00:01:64

CRC32 hash (test run) : 0717CA85
CRC32 hash : EA857F46
->Rip may not be accurate.
CRC32 hash (skip zero) : D52319B8
AccurateRip signature : DF43AF45
->Accurately ripped! (confidence 29)
(matched with the different offset correction value;
calculated using an additional offset of -6;
the signature after correction is: 4EB20DF5)
Statistics
Read error : 0
Skipped (treated as error) : 0
Edge jitter error (maybe fixed) : 0
Atom jitter error (maybe fixed) : 0
Drift error (maybe fixed) : 0
Dropped bytes error (maybe fixed) : 0
Duplicated bytes error (maybe fixed) : 0
Inconsistency in error sectors : 0

Track 08
Filename : /Users/gubarenko/Desktop/John Mayall & The Blues Breakers - Blues Breakers With Eric Clapton/08 - Cheatin' Woman (Live At BBC '65) (Bonus).flac

Pre-gap length : 00:01:67

CRC32 hash (test run) : A48237B0
CRC32 hash : A48237B0
CRC32 hash (skip zero) : 1BC7EB33
AccurateRip signature : 26F1225C
->Accurately ripped! (confidence 29)
Statistics
Read error : 0
Skipped (treated as error) : 0
Edge jitter error (maybe fixed) : 0
Atom jitter error (maybe fixed) : 2
Drift error (maybe fixed) : 0
Dropped bytes error (maybe fixed) : 0
Duplicated bytes error (maybe fixed) : 0
Inconsistency in error sectors : 0

Track 09
Filename : /Users/gubarenko/Desktop/John Mayall & The Blues Breakers - Blues Breakers With Eric Clapton/09 - Nowhere To Turn (Live At BBC '65) (Bonus).flac

Pre-gap length : 00:01:71

CRC32 hash (test run) : EDF3B782
CRC32 hash : EDF3B782
CRC32 hash (skip zero) : 294993F4
AccurateRip signature : 7EEBCADD
->Accurately ripped! (confidence 29)
Statistics
Read error : 0
Skipped (treated as error) : 0
Edge jitter error (maybe fixed) : 0
Atom jitter error (maybe fixed) : 0
Drift error (maybe fixed) : 0
Dropped bytes error (maybe fixed) : 0
Duplicated bytes error (maybe fixed) : 0
Inconsistency in error sectors : 0

Track 10
Filename : /Users/gubarenko/Desktop/John Mayall & The Blues Breakers - Blues Breakers With Eric Clapton/10 - I'm Your Witchdoctor (Live At BBC '65) (Bonus).flac

Pre-gap length : 00:02:04

CRC32 hash (test run) : 76F6D190
CRC32 hash : 76F6D190
CRC32 hash (skip zero) : 7CA47B25
AccurateRip signature : 60D40CCA
->Accurately ripped! (confidence 29)
Statistics
Read error : 0
Skipped (treated as error) : 0
Edge jitter error (maybe fixed) : 2
Atom jitter error (maybe fixed) : 1
Drift error (maybe fixed) : 0
Dropped bytes error (maybe fixed) : 0
Duplicated bytes error (maybe fixed) : 1
Inconsistency in error sectors : 0

Track 11
Filename : /Users/gubarenko/Desktop/John Mayall & The Blues Breakers - Blues Breakers With Eric Clapton/11 - On Top Of The World (Take 2) (Bonus).flac

Pre-gap length : 00:01:56

CRC32 hash (test run) : B6929C5F
CRC32 hash : B6929C5F
CRC32 hash (skip zero) : 18935674
AccurateRip signature : 36C20FDC
->Accurately ripped! (confidence 29)
Statistics
Read error : 0
Skipped (treated as error) : 0
Edge jitter error (maybe fixed) : 1
Atom jitter error (maybe fixed) : 0
Drift error (maybe fixed) : 0
Dropped bytes error (maybe fixed) : 0
Duplicated bytes error (maybe fixed) : 1
Inconsistency in error sectors : 0

Track 12
Filename : /Users/gubarenko/Desktop/John Mayall & The Blues Breakers - Blues Breakers With Eric Clapton/12 - Key To Love (Live At BBC '65) (Bonus).flac

Pre-gap length : 00:01:59

CRC32 hash (test run) : 991CDE0B
CRC32 hash : 991CDE0B
CRC32 hash (skip zero) : 000FD88F
AccurateRip signature : 8BEB8B1A
->Accurately ripped! (confidence 29)
Statistics
Read error : 0
Skipped (treated as error) : 0
Edge jitter error (maybe fixed) : 0
Atom jitter error (maybe fixed) : 0
Drift error (maybe fixed) : 0
Dropped bytes error (maybe fixed) : 0
Duplicated bytes error (maybe fixed) : 0
Inconsistency in error sectors : 0

Track 13
Filename : /Users/gubarenko/Desktop/John Mayall & The Blues Breakers - Blues Breakers With Eric Clapton/13 - On Top Of The World (Live At BBC '65) (Bonus).flac

Pre-gap length : 00:01:57

CRC32 hash (test run) : CEDA193C
CRC32 hash : CEDA193C
CRC32 hash (skip zero) : 3EA2E188
AccurateRip signature : AE95CA26
->Accurately ripped! (confidence 29)
Statistics
Read error : 0
Skipped (treated as error) : 0
Edge jitter error (maybe fixed) : 0
Atom jitter error (maybe fixed) : 1
Drift error (maybe fixed) : 0
Dropped bytes error (maybe fixed) : 0
Duplicated bytes error (maybe fixed) : 0
Inconsistency in error sectors : 0

Track 14
Filename : /Users/gubarenko/Desktop/John Mayall & The Blues Breakers - Blues Breakers With Eric Clapton/14 - They Call It Stormy Monday (Live '66) (Bonus).flac

Pre-gap length : 00:01:59

CRC32 hash (test run) : 1E93D60D
CRC32 hash : 1E93D60D
CRC32 hash (skip zero) : 5C2D913C
AccurateRip signature : AF1165CA
->Accurately ripped! (confidence 29)
Statistics
Read error : 0
Skipped (treated as error) : 0
Edge jitter error (maybe fixed) : 0
Atom jitter error (maybe fixed) : 0
Drift error (maybe fixed) : 0
Dropped bytes error (maybe fixed) : 0
Duplicated bytes error (maybe fixed) : 0
Inconsistency in error sectors : 0

Track 15
Filename : /Users/gubarenko/Desktop/John Mayall & The Blues Breakers - Blues Breakers With Eric Clapton/15 - Intro Into Maudie (Live '66) (Bonus).flac

Pre-gap length : 00:01:74

CRC32 hash (test run) : 133BACF7
CRC32 hash : 133BACF7
CRC32 hash (skip zero) : B6B7EAB3
AccurateRip signature : 33A512AC
->Accurately ripped! (confidence 30)
Statistics
Read error : 0
Skipped (treated as error) : 0
Edge jitter error (maybe fixed) : 11
Atom jitter error (maybe fixed) : 5
Drift error (maybe fixed) : 0
Dropped bytes error (maybe fixed) : 0
Duplicated bytes error (maybe fixed) : 0
Inconsistency in error sectors : 0

Track 16
Filename : /Users/gubarenko/Desktop/John Mayall & The Blues Breakers - Blues Breakers With Eric Clapton/16 - It Hurts To Be In Love (Live '66) (Bonus).flac

Pre-gap length : 00:01:53

CRC32 hash (test run) : ED41B13A
CRC32 hash : ED41B13A
CRC32 hash (skip zero) : D38895A1
AccurateRip signature : B726AFDF
->Accurately ripped! (confidence 29)
Statistics
Read error : 0
Skipped (treated as error) : 0
Edge jitter error (maybe fixed) : 2
Atom jitter error (maybe fixed) : 1
Drift error (maybe fixed) : 0
Dropped bytes error (maybe fixed) : 1
Duplicated bytes error (maybe fixed) : 1
Inconsistency in error sectors : 0

Track 17
Filename : /Users/gubarenko/Desktop/John Mayall & The Blues Breakers - Blues Breakers With Eric Clapton/17 - Have You Ever Loved A Woman (Live '66) (Bonus).flac

Pre-gap length : 00:01:59

CRC32 hash (test run) : 43CB9BC6
CRC32 hash : 43CB9BC6
CRC32 hash (skip zero) : EBA70884
AccurateRip signature : EE1999E9
->Accurately ripped! (confidence 30)
Statistics
Read error : 0
Skipped (treated as error) : 0
Edge jitter error (maybe fixed) : 1
Atom jitter error (maybe fixed) : 0
Drift error (maybe fixed) : 0
Dropped bytes error (maybe fixed) : 1
Duplicated bytes error (maybe fixed) : 0
Inconsistency in error sectors : 0

Track 18
Filename : /Users/gubarenko/Desktop/John Mayall & The Blues Breakers - Blues Breakers With Eric Clapton/18 - Bye Bye Bird (Live '66) (Bonus).flac

Pre-gap length : 00:01:60

CRC32 hash (test run) : 6FE88D39
CRC32 hash : 6FE88D39
CRC32 hash (skip zero) : A5462800
AccurateRip signature : 62C5D63D
->Accurately ripped! (confidence 29)
Statistics
Read error : 0
Skipped (treated as error) : 0
Edge jitter error (maybe fixed) : 0
Atom jitter error (maybe fixed) : 0
Drift error (maybe fixed) : 0
Dropped bytes error (maybe fixed) : 0
Duplicated bytes error (maybe fixed) : 0
Inconsistency in error sectors : 0

Track 19
Filename : /Users/gubarenko/Desktop/John Mayall & The Blues Breakers - Blues Breakers With Eric Clapton/19 - Hoochie Coochie Man (Live '66) (Bonus).flac

Pre-gap length : 00:01:60

CRC32 hash (test run) : 8F0CB880
CRC32 hash : 8F0CB880
CRC32 hash (skip zero) : 19977120
AccurateRip signature : B71FA229
->Accurately ripped! (confidence 22)
Statistics
Read error : 0
Skipped (treated as error) : 0
Edge jitter error (maybe fixed) : 0
Atom jitter error (maybe fixed) : 0
Drift error (maybe fixed) : 0
Dropped bytes error (maybe fixed) : 0
Duplicated bytes error (maybe fixed) : 0
Inconsistency in error sectors : 0

Some inconsistencies found

End of status report


[CUETools log; Date: 04.06.2018 15:24:28; Version: 2.1.5]
[AccurateRip ID: 0024a351-02090e05-070dd313] found.
Track [ CRC | V2 ] Status
01 [96d91b86|d22c615a] (060+113/175) Accurately ripped
02 [f266ca87|e9677442] (060+113/175) Accurately ripped
03 [f3b78641|689c7758] (060+113/175) Accurately ripped
04 [03f273ca|7229ef96] (060+114/176) Accurately ripped
05 [e9543cb2|be63f05e] (060+114/176) Accurately ripped
06 [ed943293|91584467] (060+114/176) Accurately ripped
07 [df43af45|6d60b0b3] (000+000/175) No match
08 [26f1225c|0cd97a7a] (060+113/175) Accurately ripped
09 [7eebcadd|3abb23ec] (060+113/175) Accurately ripped
10 [60d40cca|56b1e4fa] (060+113/175) Accurately ripped
11 [36c20fdc|9ef41371] (060+115/177) Accurately ripped
12 [8beb8b1a|78c19525] (060+113/175) Accurately ripped
13 [ae95ca26|68851b38] (060+113/175) Accurately ripped
14 [af1165ca|75e03591] (060+113/175) Accurately ripped
15 [33a512ac|c0cb7fc2] (061+112/175) Accurately ripped
16 [b726afdf|dc4056aa] (061+113/176) Accurately ripped
17 [ee1999e9|4ba8c741] (061+112/175) Accurately ripped
18 [62c5d63d|93b7a217] (059+113/174) Accurately ripped
19 [b71fa229|cf814bdb] (049+112/173) Accurately ripped
Offsetted by -26:
01 [7e05dd30] (000/175) No match
02 [c29cd29c] (000/175) No match
03 [f418017d] (000/175) No match
04 [ca5ff48b] (000/176) No match
05 [73478de8] (000/176) No match
06 [abc93861] (000/176) No match
07 [17774995] (000/175) No match (V2 was not tested)
08 [e227d5e6] (000/175) No match
09 [a52e8b97] (000/175) No match
10 [e313205d] (000/175) No match
11 [988559df] (000/177) No match
12 [b9e2fe90] (000/175) No match
13 [37d01f64] (000/175) No match
14 [6be19bf6] (000/175) No match
15 [e63a7bdd] (000/175) No match
16 [87f78121] (000/176) No match
17 [a04289e2] (000/175) No match
18 [c1097615] (000/174) No match
19 [e322b809] (000/173) No match
Offsetted by -20:
01 [d28561ba] (000/175) No match (V2 was not tested)
02 [1c68f7e5] (000/175) No match (V2 was not tested)
03 [42c6a9f9] (000/175) No match (V2 was not tested)
04 [3a1f4d38] (000/176) No match (V2 was not tested)
05 [f0fbb63e] (000/176) No match (V2 was not tested)
06 [e25a85cf] (000/176) No match (V2 was not tested)
07 [a808eae5] (000/175) No match
08 [2d1b3650] (000/175) No match (V2 was not tested)
09 [12819a31] (000/175) No match (V2 was not tested)
10 [c50491c4] (000/175) No match (V2 was not tested)
11 [d0babf2e] (000/177) No match (V2 was not tested)
12 [11bd9526] (000/175) No match (V2 was not tested)
13 [f0c2a942] (000/175) No match (V2 was not tested)
14 [54005462] (000/175) No match (V2 was not tested)
15 [95a1d982] (000/175) No match (V2 was not tested)
16 [441615c3] (000/176) No match (V2 was not tested)
17 [4fc2f047] (000/175) No match (V2 was not tested)
18 [2170026d] (000/174) No match (V2 was not tested)
19 [768477e9] (000/173) No match (V2 was not tested)
Offsetted by -6:
01 [425996fc] (000/175) No match
02 [989aa4c6] (000/175) No match
03 [a508ddc5] (000/175) No match
04 [94331b95] (000/176) No match
05 [6ba0145c] (000/176) No match
06 [b702e525] (000/176) No match
07 [4eb20df5] (060/175) Accurately ripped
08 [dbfdc1f2] (000/175) No match
09 [1198bc43] (000/175) No match
10 [7ee29aeb] (000/175) No match
11 [fe8cab05] (000/177) No match
12 [3410f484] (000/175) No match
13 [f5a34048] (000/175) No match
14 [c6f2ad5e] (000/175) No match
15 [843db48f] (000/175) No match
16 [fb081b3d] (000/176) No match
17 [3e9933fc] (000/175) No match
18 [025f49e5] (000/174) No match
19 [23bde249] (000/173) No match

Track Peak [ CRC32 ] [W/O NULL]
– 98,8 [8A57AD51] [8D1F9981]
01 98,8 [7CB280CD] [136B5ADB]
02 98,8 [D9E686AA] [97DB1822]
03 98,8 [1E9535F7] [1830E2E4]
04 98,8 [A3F285EB] [B02D90B3]
05 98,8 [E2B073F1] [7FE5FCE2]
06 98,8 [059F37D3] [08CC2720]
07 98,8 [EA857F46] [D52319B8]
08 98,8 [A48237B0] [1BC7EB33]
09 98,8 [EDF3B782] [294993F4]
10 98,8 [76F6D190] [7CA47B25]
11 98,8 [B6929C5F] [18935674]
12 98,8 [991CDE0B] [000FD88F]
13 98,8 [CEDA193C] [3EA2E188]
14 98,8 [1E93D60D] [5C2D913C]
15 98,8 [133BACF7] [B6B7EAB3]
16 98,8 [ED41B13A] [D38895A1]
17 98,8 [43CB9BC6] [EBA70884]
18 98,8 [6FE88D39] [A5462800]
19 98,8 [8F0CB880] [19977120]


John Mayall & The Bluesbreakers - Blues Breakers With Eric Clapton (1966) [Japan, Deluxe Edition] Repost

All thanks go to mgubarenko

John Mayall or John Mayall in my Blog

Download John Mayall & The Bluesbreakers - Blues Breakers With Eric Clapton (1966):