Tags
Language
Tags

John Mayall - Rolling With The Blues (2003)

Posted By: Rtax
John Mayall - Rolling With The Blues (2003)

John Mayall - Rolling With The Blues (2003)
EAC Rip | FLAC (tracks, cue, log, scans) - 989 MB | MP3 CBR 320kbps - 349 MB
2:28:43 | Jazz , Rock , Blues | Label: Shakedown Records

Rolling with the Blues chronicles seven John Mayall concerts played between 1972 and 1982. Mayall had given up trying to maintain and support a regular backing group by the early '70s, and was instead working with different configurations for specific gigs.

For the 1972 Frankfurt show that opens this two-disc set (a third disc is a DVD interview with Mayall from 2002), Mayall works with a lineup of Keef Hartley on drums, Blue Mitchell on trumpet, Clifford Solomon on sax, Freddy Robinson on guitar, and Victor Gaskin on upright bass. Red Holloway replaces Solomon on sax for a second show in Frankfurt a year later in 1973. A 1980 show in Huntington Beach, CA, finds James Quill Smith on guitar. Two 1982 concerts, one in Minneapolis and one in Chicago, feature John McVie of Fleetwood Mac on bass, while two shows in Italy later in the year, one in Rome and one in Lugo, sport a stripped-down lineup of Mick Taylor, Steve Thompson, and Colin Allen. For all these personnel differences, the sound is remarkably consistent and the live recordings are quite balanced, although things red-line occasionally and now and then there are some obvious dropouts, but nothing too serious. Among the highlights are the over 12-minute jazz blues "Got You on My Mind" and a scuffling "No Holds Barred" from the 1972 Frankfurt show and an appropriately ragged John Lee Hooker homage, "John Lee Boogie," from the 1980 Huntington Beach performance.

Tracklist

CD 1
01. Band Introduction (Narrative) (01:01)
02. Got You On My Mind (12:13)
03. No Smoking (08:08)
04. No Holds Barred (07:23)
05. Band Intro (Narrative) (01:41)
06. Feels Good In Frankfurt (11:43)
07. Next Time Around (11:27)
08. Freddie's Request (Narrative) (00:32)
09. Sad To Be Alone (06:33)
10. Red Presents Blue Mitchell (Narrative) (01:05)
11. Filthy McNasty (07:55)
12. Make My Bed Tonight (06:43)
Exact Audio Copy V0.99 prebeta 5 from 4. May 2009

EAC extraction logfile from 28. June 2011, 20:43

John Mayall / Rolling With The Blues (Disc 1)

Used drive : Optiarc DVD RW AD-7170A Adapter: 3 ID: 0

Read mode : Secure
Utilize accurate stream : Yes
Defeat audio cache : Yes
Make use of C2 pointers : No

Read offset correction : 48
Overread into Lead-In and Lead-Out : No
Fill up missing offset samples with silence : Yes
Delete leading and trailing silent blocks : No
Null samples used in CRC calculations : Yes
Used interface : Native Win32 interface for Win NT & 2000
Gap handling : Appended to previous track

Used output format : Internal WAV Routines
Sample format : 44.100 Hz; 16 Bit; Stereo


TOC of the extracted CD

Track | Start | Length | Start sector | End sector
––––––––––––––––––––––––––––-
1 | 0:00.00 | 1:01.18 | 0 | 4592
2 | 1:01.18 | 12:13.01 | 4593 | 59568
3 | 13:14.19 | 8:07.47 | 59569 | 96140
4 | 21:21.66 | 7:23.19 | 96141 | 129384
5 | 28:45.10 | 1:41.01 | 129385 | 136960
6 | 30:26.11 | 11:43.12 | 136961 | 189697
7 | 42:09.23 | 11:26.50 | 189698 | 241197
8 | 53:35.73 | 0:31.73 | 241198 | 243595
9 | 54:07.71 | 6:32.52 | 243596 | 273047
10 | 60:40.48 | 1:04.53 | 273048 | 277900
11 | 61:45.26 | 7:55.04 | 277901 | 313529
12 | 69:40.30 | 6:42.45 | 313530 | 343724


Track 1

Filename G:\! Ìàñòåðñêàÿ\Â ðàáîòå\John Mayall (flac)\John Mayall - 2003 - Rolling With The Blues (2003, UK, Box Set) [SHAKEBX116Z]\Disc 1\01. Band Introduction (Narrative).wav

Pre-gap length 0:00:02.00

Peak level 99.8 %
Track quality 100.0 %
Test CRC 71C05DE5
Copy CRC 71C05DE5
Cannot be verified as accurate (confidence 1) [00C17AA5], AccurateRip returned [A61F5215]
Copy OK

Track 2

Filename G:\! Ìàñòåðñêàÿ\Â ðàáîòå\John Mayall (flac)\John Mayall - 2003 - Rolling With The Blues (2003, UK, Box Set) [SHAKEBX116Z]\Disc 1\02. Got You On My Mind.wav

Peak level 99.8 %
Track quality 100.0 %
Test CRC B123BC5F
Copy CRC B123BC5F
Cannot be verified as accurate (confidence 1) [F7A33CD7], AccurateRip returned [BAB7DC59]
Copy OK

Track 3

Filename G:\! Ìàñòåðñêàÿ\Â ðàáîòå\John Mayall (flac)\John Mayall - 2003 - Rolling With The Blues (2003, UK, Box Set) [SHAKEBX116Z]\Disc 1\03. No Smoking.wav

Pre-gap length 0:00:00.69

Peak level 99.8 %
Track quality 100.0 %
Test CRC 1714DCB1
Copy CRC 1714DCB1
Cannot be verified as accurate (confidence 1) [A23C77F7], AccurateRip returned [37A43A91]
Copy OK

Track 4

Filename G:\! Ìàñòåðñêàÿ\Â ðàáîòå\John Mayall (flac)\John Mayall - 2003 - Rolling With The Blues (2003, UK, Box Set) [SHAKEBX116Z]\Disc 1\04. No Holds Barred.wav

Pre-gap length 0:00:00.69

Peak level 99.8 %
Track quality 100.0 %
Test CRC 304055C9
Copy CRC 304055C9
Cannot be verified as accurate (confidence 1) [A6C50A94], AccurateRip returned [3FE1A820]
Copy OK

Track 5

Filename G:\! Ìàñòåðñêàÿ\Â ðàáîòå\John Mayall (flac)\John Mayall - 2003 - Rolling With The Blues (2003, UK, Box Set) [SHAKEBX116Z]\Disc 1\05. Band Intro (Narrative).wav

Pre-gap length 0:00:00.68

Peak level 92.1 %
Track quality 100.0 %
Test CRC 7831C6D3
Copy CRC 7831C6D3
Cannot be verified as accurate (confidence 1) [98491E3A], AccurateRip returned [9576CA81]
Copy OK

Track 6

Filename G:\! Ìàñòåðñêàÿ\Â ðàáîòå\John Mayall (flac)\John Mayall - 2003 - Rolling With The Blues (2003, UK, Box Set) [SHAKEBX116Z]\Disc 1\06. Feels Good In Frankfurt.wav

Peak level 99.8 %
Track quality 100.0 %
Test CRC 401783EA
Copy CRC 401783EA
Cannot be verified as accurate (confidence 1) [B8CCE76C], AccurateRip returned [64EFB73B]
Copy OK

Track 7

Filename G:\! Ìàñòåðñêàÿ\Â ðàáîòå\John Mayall (flac)\John Mayall - 2003 - Rolling With The Blues (2003, UK, Box Set) [SHAKEBX116Z]\Disc 1\07. Next Time Around.wav

Pre-gap length 0:00:00.68

Peak level 99.8 %
Track quality 100.0 %
Test CRC 3622FC4B
Copy CRC 3622FC4B
Cannot be verified as accurate (confidence 1) [F6AFBB01], AccurateRip returned [DE27661C]
Copy OK

Track 8

Filename G:\! Ìàñòåðñêàÿ\Â ðàáîòå\John Mayall (flac)\John Mayall - 2003 - Rolling With The Blues (2003, UK, Box Set) [SHAKEBX116Z]\Disc 1\08. Freddie's Request (Narrative).wav

Pre-gap length 0:00:00.69

Peak level 99.8 %
Track quality 100.0 %
Test CRC 4FFF14F6
Copy CRC 4FFF14F6
Cannot be verified as accurate (confidence 1) [89F5D910], AccurateRip returned [69EFC3BD]
Copy OK

Track 9

Filename G:\! Ìàñòåðñêàÿ\Â ðàáîòå\John Mayall (flac)\John Mayall - 2003 - Rolling With The Blues (2003, UK, Box Set) [SHAKEBX116Z]\Disc 1\09. Sad To Be Alone.wav

Peak level 99.8 %
Track quality 100.0 %
Test CRC B1FE2B73
Copy CRC B1FE2B73
Cannot be verified as accurate (confidence 1) [8FCB2784], AccurateRip returned [3477C297]
Copy OK

Track 10

Filename G:\! Ìàñòåðñêàÿ\Â ðàáîòå\John Mayall (flac)\John Mayall - 2003 - Rolling With The Blues (2003, UK, Box Set) [SHAKEBX116Z]\Disc 1\10. Red Presents Blue Mitchell (Narrative).wav

Pre-gap length 0:00:00.69

Peak level 99.8 %
Track quality 100.0 %
Test CRC 20EB5CC6
Copy CRC 20EB5CC6
Cannot be verified as accurate (confidence 1) [53B585F6], AccurateRip returned [D3CE83DB]
Copy OK

Track 11

Filename G:\! Ìàñòåðñêàÿ\Â ðàáîòå\John Mayall (flac)\John Mayall - 2003 - Rolling With The Blues (2003, UK, Box Set) [SHAKEBX116Z]\Disc 1\11. Filthy McNasty.wav

Peak level 99.8 %
Track quality 100.0 %
Test CRC 0A8517BF
Copy CRC 0A8517BF
Cannot be verified as accurate (confidence 1) [B35BF58B], AccurateRip returned [345DD987]
Copy OK

Track 12

Filename G:\! Ìàñòåðñêàÿ\Â ðàáîòå\John Mayall (flac)\John Mayall - 2003 - Rolling With The Blues (2003, UK, Box Set) [SHAKEBX116Z]\Disc 1\12. Make My Bed Tonight.wav

Pre-gap length 0:00:00.69

Peak level 99.8 %
Track quality 100.0 %
Test CRC 3D1AF9EA
Copy CRC 3D1AF9EA
Cannot be verified as accurate (confidence 1) [BB1EDB2E], AccurateRip returned [8D72E0B4]
Copy OK


No tracks could be verified as accurate
You may have a different pressing from the one(s) in the database

No errors occurred

End of status report


CD 2
01. Mexico City (10:18)
02. Gone From The Canyon (04:44)
03. Caught In The Middle (09:58)
04. John Lee Boogie (08:45)
05. Emergency Boogie (04:34)
06. Rolling With The Blues (09:07)
07. Howlin' Moon (06:33)
08. Room To Move (06:40)
09. Sitting Here Alone (06:28)
10. The Stumble (05:16)
Exact Audio Copy V0.99 prebeta 5 from 4. May 2009

EAC extraction logfile from 28. June 2011, 19:14

John Mayall / Rolling With The Blues (Disc 2)

Used drive : Optiarc DVD RW AD-7170A Adapter: 3 ID: 0

Read mode : Secure
Utilize accurate stream : Yes
Defeat audio cache : Yes
Make use of C2 pointers : No

Read offset correction : 48
Overread into Lead-In and Lead-Out : No
Fill up missing offset samples with silence : Yes
Delete leading and trailing silent blocks : No
Null samples used in CRC calculations : Yes
Used interface : Native Win32 interface for Win NT & 2000
Gap handling : Appended to previous track

Used output format : Internal WAV Routines
Sample format : 44.100 Hz; 16 Bit; Stereo


TOC of the extracted CD

Track | Start | Length | Start sector | End sector
––––––––––––––––––––––––––––-
1 | 0:00.00 | 10:17.36 | 0 | 46310
2 | 10:17.36 | 4:43.51 | 46311 | 67586
3 | 15:01.12 | 9:57.53 | 67587 | 112414
4 | 24:58.65 | 8:44.38 | 112415 | 151752
5 | 33:43.28 | 4:33.74 | 151753 | 172301
6 | 38:17.27 | 9:06.38 | 172302 | 213289
7 | 47:23.65 | 6:32.36 | 213290 | 242725
8 | 53:56.26 | 6:39.29 | 242726 | 272679
9 | 60:35.55 | 6:27.17 | 272680 | 301721
10 | 67:02.72 | 5:16.03 | 301722 | 325424


Track 1

Filename G:\! Ìàñòåðñêàÿ\Â ðàáîòå\John Mayall (flac)\John Mayall - 2003 - Rolling With The Blues (2003, UK, Box Set) [SHAKEBX116Z]\Disc 2\01. Mexico City.wav

Pre-gap length 0:00:02.00

Peak level 99.8 %
Track quality 97.3 %
Test CRC 0C0411FD
Copy CRC 0C0411FD
Cannot be verified as accurate (confidence 2) [FF758C8C], AccurateRip returned [0616C84C]
Copy OK

Track 2

Filename G:\! Ìàñòåðñêàÿ\Â ðàáîòå\John Mayall (flac)\John Mayall - 2003 - Rolling With The Blues (2003, UK, Box Set) [SHAKEBX116Z]\Disc 2\02. Gone From The Canyon.wav

Pre-gap length 0:00:00.69

Peak level 99.8 %
Track quality 100.0 %
Test CRC 0732DCEF
Copy CRC 0732DCEF
Cannot be verified as accurate (confidence 2) [4244365C], AccurateRip returned [5EBD4AF7]
Copy OK

Track 3

Filename G:\! Ìàñòåðñêàÿ\Â ðàáîòå\John Mayall (flac)\John Mayall - 2003 - Rolling With The Blues (2003, UK, Box Set) [SHAKEBX116Z]\Disc 2\03. Caught In The Middle.wav

Pre-gap length 0:00:00.69

Peak level 99.8 %
Track quality 99.9 %
Test CRC ABFFDC7C
Copy CRC ABFFDC7C
Cannot be verified as accurate (confidence 2) [0ECE2B2E], AccurateRip returned [4602E583]
Copy OK

Track 4

Filename G:\! Ìàñòåðñêàÿ\Â ðàáîòå\John Mayall (flac)\John Mayall - 2003 - Rolling With The Blues (2003, UK, Box Set) [SHAKEBX116Z]\Disc 2\04. John Lee Boogie.wav

Pre-gap length 0:00:00.69

Peak level 99.8 %
Track quality 100.0 %
Test CRC D29A857B
Copy CRC D29A857B
Cannot be verified as accurate (confidence 2) [0F7F36FE], AccurateRip returned [F28B11C0]
Copy OK

Track 5

Filename G:\! Ìàñòåðñêàÿ\Â ðàáîòå\John Mayall (flac)\John Mayall - 2003 - Rolling With The Blues (2003, UK, Box Set) [SHAKEBX116Z]\Disc 2\05. Emergency Boogie.wav

Pre-gap length 0:00:00.69

Peak level 99.8 %
Track quality 100.0 %
Test CRC 605BF51B
Copy CRC 605BF51B
Cannot be verified as accurate (confidence 2) [0A4F0720], AccurateRip returned [0CDA823D]
Copy OK

Track 6

Filename G:\! Ìàñòåðñêàÿ\Â ðàáîòå\John Mayall (flac)\John Mayall - 2003 - Rolling With The Blues (2003, UK, Box Set) [SHAKEBX116Z]\Disc 2\06. Rolling With The Blues.wav

Pre-gap length 0:00:01.69

Peak level 99.8 %
Track quality 99.9 %
Test CRC A37E3CF6
Copy CRC A37E3CF6
Cannot be verified as accurate (confidence 2) [DF763F96], AccurateRip returned [E28B3BBA]
Copy OK

Track 7

Filename G:\! Ìàñòåðñêàÿ\Â ðàáîòå\John Mayall (flac)\John Mayall - 2003 - Rolling With The Blues (2003, UK, Box Set) [SHAKEBX116Z]\Disc 2\07. Howlin' Moon.wav

Pre-gap length 0:00:00.69

Peak level 99.8 %
Track quality 99.9 %
Test CRC CE700946
Copy CRC CE700946
Cannot be verified as accurate (confidence 2) [B6FCBC7C], AccurateRip returned [E28EA03E]
Copy OK

Track 8

Filename G:\! Ìàñòåðñêàÿ\Â ðàáîòå\John Mayall (flac)\John Mayall - 2003 - Rolling With The Blues (2003, UK, Box Set) [SHAKEBX116Z]\Disc 2\08. Room To Move.wav

Pre-gap length 0:00:01.69

Peak level 99.8 %
Track quality 100.0 %
Test CRC 0D335F53
Copy CRC 0D335F53
Cannot be verified as accurate (confidence 2) [EBE7B93C], AccurateRip returned [7DA5B6E7]
Copy OK

Track 9

Filename G:\! Ìàñòåðñêàÿ\Â ðàáîòå\John Mayall (flac)\John Mayall - 2003 - Rolling With The Blues (2003, UK, Box Set) [SHAKEBX116Z]\Disc 2\09. Sitting Here Alone.wav

Pre-gap length 0:00:01.69

Peak level 99.8 %
Track quality 100.0 %
Test CRC 79ECBAC6
Copy CRC 79ECBAC6
Cannot be verified as accurate (confidence 2) [F4152BF9], AccurateRip returned [ED3211F7]
Copy OK

Track 10

Filename G:\! Ìàñòåðñêàÿ\Â ðàáîòå\John Mayall (flac)\John Mayall - 2003 - Rolling With The Blues (2003, UK, Box Set) [SHAKEBX116Z]\Disc 2\10. The Stumble.wav

Pre-gap length 0:00:01.69

Peak level 99.8 %
Track quality 100.0 %
Test CRC 3BE1566C
Copy CRC 3BE1566C
Cannot be verified as accurate (confidence 2) [8FDBC17C], AccurateRip returned [B8011254]
Copy OK


No tracks could be verified as accurate
You may have a different pressing from the one(s) in the database

No errors occurred

End of status report