Subcategories

John Mayer - Any Given Thursday (2003)

Posted By: popsakov
John Mayer - Any Given Thursday (2003)

John Mayer - Any Given Thursday (2003)
EAC Rip | FLAC (Img) + Cue + Log ~ 700 Mb | MP3 CBR320 ~ 246 Mb
Full Scans (JPG, 600 dpi) ~ 52 Mb | RAR 5% Recovery
Alternative Rock, Pop Rock, Indie Rock | Aware Records / Columbia #C2K 87199

John Mayer found stardom the old-fashioned way. After building a live following in his adopted hometown of Atlanta, he took his solo acoustic act to Austin's annual South by Southwest festival, where he was signed by the Columbia subsidiary Aware, a label responsible for such college festival fare as Hootie & the Blowfish, Train, and Vertical Horizon. His second album, Room for Squares, eventually became a monster hit behind the single "No Such Thing," and Mayer expanded his live following nationwide, scoring especially big numbers with college coeds eager to trade in their Dave Matthews crushes for a younger, more charismatic model. Room for Squares was released in summer of 2001, and Mayer toured in support of it for more than a year after. The live Any Given Thursday, then, filled the gap until Mayer's proper follow-up could be recorded; it also capitalized on his tumbleweed of stardom, which was still rolling through 2003 due to a Grammy win and strong word of mouth between campuses about his live show. Any Given Thursday was recorded at Oak Mountain Amphitheater in Birmingham, AL, on September 12, 2002. In addition to Mayer's guitar and vocals, it features bassist David LaBruyere, drummer Stephen Chopek, and guitarist/keyboardist Michael Chaves. No matter how great it was when it happened, a live document always has the potential for disaster when released for public consumption. Thursday succeeds, but it does so because Mayer's music is an unthreatening mixture of college rock and wide-eyed adolescent lyricism. Like Matthews, Mayer makes music that is creatively bland. It appeals to everyone, goes great with beer, and can be played with relative ease by any college town cover band. He's handsome, and his lyrics say everything that real boyfriends never will. Live, each vocal trill and guitar flourish is greeted with Beatlesque screaming from his largely female following. Singalong moments during "Love Song for No One," "Why Georgia," and the sticky bubblegum love pop of "Your Body Is a Wonderland" prove this; during each, the "B-ham choir" (as Mayer characterizes the crowd) sounds like a thousand pretty birds harmonizing on his words. Musically, Any Given Thursday is somewhat vacant; Mayer's band lays the AAA-alternative groove on too thick at times, and his own vocal and instrumental similarity to Matthews is so striking as to be off-putting. Any Given Thursday is also broken up into two discs to emulate Mayer's set break. This is tiresome, as with a few minor edits (the free-jammy "Covered in Rain") the music would have fit comfortably onto one disc. Given the relatively similar sticker price, the accompanying DVD of the concert – which includes backstage interviews and the like – might be the better buy. In either format, Any Given Thursday is really for the rabid fan, since the release acts as a document of the summer that saw Mayer go from nobody to somebody in the eyes and ears of a million college kids.
~ Johnny Loftus, All Music
John Mayer - Any Given Thursday (2003)


***************

John Mayer - Any Given Thursday (2003)

John Mayer - Any Given Thursday (2003)

Track List CD1:

01. 3x5 [0:08:05.40]
02. No Such Thing [0:04:46.20]
03. Back to You [0:04:36.10]
04. City Love [0:05:11.00]
05. Something's Missing [0:06:47.35]
06. Lenny / Man on the Side [0:08:46.22]
07. Message in a Bottle [0:05:06.63]
08. Love Song For No One [0:03:35.62]

Exact Audio Copy V1.3 from 2. September 2016

EAC extraction logfile from 27. November 2017, 22:13

John Mayer / Any Given Thursday (CD1)

Used drive : ATAPI iHAS124 D Adapter: 0 ID: 2

Read mode : Secure
Utilize accurate stream : Yes
Defeat audio cache : Yes
Make use of C2 pointers : No

Read offset correction : 6
Overread into Lead-In and Lead-Out : No
Fill up missing offset samples with silence : Yes
Delete leading and trailing silent blocks : No
Null samples used in CRC calculations : Yes
Used interface : Installed external ASPI interface

Used output format : User Defined Encoder
Selected bitrate : 1024 kBit/s
Quality : High
Add ID3 tag : No
Command line compressor : C:\Program Files (x86)\Exact Audio Copy\Flac\flac.exe
Additional command line options : -6 -V -T "ARTIST=%artist%" -T "TITLE=%title%" -T "ALBUM=%albumtitle%" -T "DATE=%year%" -T "TRACKNUMBER=%tracknr%" -T "GENRE=%genre%" -T "COMMENT=%comment%" -T "BAND=%albuminterpret%" -T "ALBUMARTIST=%albuminterpret%" -T "COMPOSER=%composer%" %haslyrics%–tag-from-file=LYRICS="%lyricsfile%"%haslyrics% -T "DISCNUMBER=%cdnumber%" -T "TOTALDISCS=%totalcds%" -T "TOTALTRACKS=%numtracks%" %hascover%–picture="%coverfile%"%hascover% %source% -o %dest%


TOC of the extracted CD

Track | Start | Length | Start sector | End sector
––––––––––––––––––––––––––––-
1 | 0:00.00 | 8:05.40 | 0 | 36414
2 | 8:05.40 | 4:46.20 | 36415 | 57884
3 | 12:51.60 | 4:36.10 | 57885 | 78594
4 | 17:27.70 | 5:11.00 | 78595 | 101919
5 | 22:38.70 | 6:47.35 | 101920 | 132479
6 | 29:26.30 | 8:46.22 | 132480 | 171951
7 | 38:12.52 | 5:06.63 | 171952 | 194964
8 | 43:19.40 | 3:35.62 | 194965 | 211151


Range status and errors

Selected range

Filename C:\mm\John Mayer\2003 - Any Given Thursday [C2K 87199]\John Mayer - Any Given Thursday (CD1).wav

Peak level 100.0 %
Extraction speed 8.9 X
Range quality 99.9 %
Test CRC 1F2D5799
Copy CRC 1F2D5799
Copy OK

No errors occurred


AccurateRip summary

Track 1 cannot be verified as accurate (confidence 32) [344D16F2], AccurateRip returned [E255CD09] (AR v2)
Track 2 cannot be verified as accurate (confidence 32) [D9F50336], AccurateRip returned [D07208BD] (AR v2)
Track 3 cannot be verified as accurate (confidence 32) [00981DF6], AccurateRip returned [02C4FCF1] (AR v2)
Track 4 cannot be verified as accurate (confidence 33) [7E0C06D7], AccurateRip returned [9905D6C0] (AR v2)
Track 5 cannot be verified as accurate (confidence 34) [66EBD010], AccurateRip returned [CE8A3886] (AR v2)
Track 6 cannot be verified as accurate (confidence 33) [EBA8A68E], AccurateRip returned [CFCA22FF] (AR v2)
Track 7 cannot be verified as accurate (confidence 33) [780B92C4], AccurateRip returned [F75141CB] (AR v2)
Track 8 cannot be verified as accurate (confidence 33) [E3ABAABE], AccurateRip returned [67E6EB92] (AR v2)

No tracks could be verified as accurate
You may have a different pressing from the one(s) in the database

End of status report

–– CUETools DB Plugin V2.1.6

[CTDB TOCID: 4MF.7EhNC34NXSn_hTAieGM4jnI-] found
Submit result: 4MF.7EhNC34NXSn_hTAieGM4jnI- has been confirmed, 4MF.7EhNC34NXSn_hTAieGM4jnI- has been confirmed
Track | CTDB Status
1 | (177/180) Accurately ripped
2 | (176/180) Accurately ripped
3 | (176/180) Accurately ripped
4 | (177/180) Accurately ripped
5 | (172/180) Accurately ripped
6 | (175/180) Accurately ripped
7 | (174/180) Accurately ripped
8 | (175/180) Accurately ripped

foobar2000 1.3.16 / Dynamic Range Meter 1.1.1
log date: 2017-11-29 11:05:36

––––––––––––––––––––––––––––––––––––––––
Analyzed: John Mayer / Any Given Thursday (CD1)
––––––––––––––––––––––––––––––––––––––––

DR Peak RMS Duration Track
––––––––––––––––––––––––––––––––––––––––
DR8 -0.10 dB -10.45 dB 8:06 01-3x5
DR9 -0.10 dB -10.94 dB 4:46 02-No Such Thing
DR8 -0.10 dB -9.85 dB 4:36 03-Back to You
DR8 -0.10 dB -10.35 dB 5:11 04-City Love
DR8 -0.10 dB -10.31 dB 6:47 05-Something's Missing
DR11 -0.10 dB -14.75 dB 8:46 06-Lenny/Man on the Side
DR11 -0.10 dB -13.74 dB 5:07 07-Message in a Bottle
DR10 0.00 dB -11.49 dB 3:36 08-Love Song For No One
––––––––––––––––––––––––––––––––––––––––

Number of tracks: 8
Official DR value: DR9

Samplerate: 44100 Hz
Channels: 2
Bits per sample: 16
Bitrate: 913 kbps
Codec: FLAC
================================================================================

[CUETools log; Date: 29.11.2017 11:05:47; Version: 2.1.5]
[CTDB TOCID: 4MF.7EhNC34NXSn_hTAieGM4jnI-] found.
Track | CTDB Status
1 | (179/182) Accurately ripped
2 | (178/182) Accurately ripped
3 | (178/182) Accurately ripped
4 | (179/182) Accurately ripped
5 | (174/182) Accurately ripped
6 | (177/182) Accurately ripped
7 | (176/182) Accurately ripped
8 | (177/182) Accurately ripped
[AccurateRip ID: 000f0914-0063a04a-6e0aff08] found.
Track [ CRC | V2 ] Status
01 [e9267d7f|344d16f2] (000+000/188) No match
02 [d8938aea|d9f50336] (000+000/189) No match
03 [fc8f3c2b|00981df6] (000+000/187) No match
04 [629a47df|7e0c06d7] (000+000/188) No match
05 [58dfa365|66ebd010] (000+000/193) No match
06 [d51755ec|eba8a68e] (000+000/186) No match
07 [f1ea3103|780b92c4] (000+000/189) No match
08 [5675c75c|e3abaabe] (000+000/183) No match
Offsetted by -676:
01 [a8bd1f9d] (000/188) No match (V2 was not tested)
02 [e2f54eb2] (000/189) No match (V2 was not tested)
03 [373c7b2c] (000/187) No match (V2 was not tested)
04 [b3e11a82] (000/188) No match (V2 was not tested)
05 [dfc7f44d] (000/193) No match (V2 was not tested)
06 [3279779b] (000/186) No match (V2 was not tested)
07 [54c4b05d] (000/189) No match (V2 was not tested)
08 [98875139] (000/183) No match (V2 was not tested)

Track Peak [ CRC32 ] [W/O NULL] [ LOG ]
– 100,0 [1F2D5799] [516CF2AD] CRC32
01 98,8 [55383368] [6948D54F]
02 98,8 [8BC6A450] [8169E432]
03 98,8 [205C0C9C] [A1B6E9C7]
04 98,8 [0E474EB8] [A5F82674]
05 98,8 [1D8FF784] [28CFD010]
06 98,8 [4F6AE1B4] [9AE67336]
07 98,8 [E936E88D] [4D8C9E0E]
08 100,0 [B703BD2E] [972B5B8A]

John Mayer - Any Given Thursday (2003)

John Mayer - Any Given Thursday (2003)

Track List CD2:

01. Why Georgia [0:08:24.05]
02. Your Body Is A Wonderland [0:06:05.52]
03. My Stupid Mouth [0:05:02.20]
04. Covered In Rain [0:10:25.13]
05. 83 [0:07:29.67]
06. Comfortable [0:07:37.20]
07. Neon [0:10:22.28]

Exact Audio Copy V1.3 from 2. September 2016

EAC extraction logfile from 27. November 2017, 23:23

John Mayer / Any Given Thursday (CD2)

Used drive : ATAPI iHAS124 D Adapter: 0 ID: 2

Read mode : Secure
Utilize accurate stream : Yes
Defeat audio cache : Yes
Make use of C2 pointers : No

Read offset correction : 6
Overread into Lead-In and Lead-Out : No
Fill up missing offset samples with silence : Yes
Delete leading and trailing silent blocks : No
Null samples used in CRC calculations : Yes
Used interface : Installed external ASPI interface

Used output format : User Defined Encoder
Selected bitrate : 1024 kBit/s
Quality : High
Add ID3 tag : No
Command line compressor : C:\Program Files (x86)\Exact Audio Copy\Flac\flac.exe
Additional command line options : -6 -V -T "ARTIST=%artist%" -T "TITLE=%title%" -T "ALBUM=%albumtitle%" -T "DATE=%year%" -T "TRACKNUMBER=%tracknr%" -T "GENRE=%genre%" -T "COMMENT=%comment%" -T "BAND=%albuminterpret%" -T "ALBUMARTIST=%albuminterpret%" -T "COMPOSER=%composer%" %haslyrics%–tag-from-file=LYRICS="%lyricsfile%"%haslyrics% -T "DISCNUMBER=%cdnumber%" -T "TOTALDISCS=%totalcds%" -T "TOTALTRACKS=%numtracks%" %hascover%–picture="%coverfile%"%hascover% %source% -o %dest%


TOC of the extracted CD

Track | Start | Length | Start sector | End sector
––––––––––––––––––––––––––––-
1 | 0:00.00 | 8:24.05 | 0 | 37804
2 | 8:24.05 | 6:05.52 | 37805 | 65231
3 | 14:29.57 | 5:02.20 | 65232 | 87901
4 | 19:32.02 | 10:25.13 | 87902 | 134789
5 | 29:57.15 | 7:29.67 | 134790 | 168531
6 | 37:27.07 | 7:37.20 | 168532 | 202826
7 | 45:04.27 | 10:22.28 | 202827 | 249504


Range status and errors

Selected range

Filename C:\mm\John Mayer\2003 - Any Given Thursday [C2K 87199]\John Mayer - Any Given Thursday (CD2).wav

Peak level 100.0 %
Extraction speed 9.4 X
Range quality 100.0 %
Test CRC EB978F77
Copy CRC EB978F77
Copy OK

No errors occurred


AccurateRip summary

Track 1 accurately ripped (confidence 2) [92805E90] (AR v2)
Track 2 accurately ripped (confidence 2) [CD456BA8] (AR v2)
Track 3 accurately ripped (confidence 2) [EA023A85] (AR v2)
Track 4 accurately ripped (confidence 2) [2C8B097F] (AR v2)
Track 5 accurately ripped (confidence 2) [A54C1D4D] (AR v2)
Track 6 accurately ripped (confidence 2) [077F1750] (AR v2)
Track 7 accurately ripped (confidence 2) [D9FEC7D7] (AR v2)

All tracks accurately ripped

End of status report

–– CUETools DB Plugin V2.1.6

[CTDB TOCID: WemVMIhWJiiRyIo_ucsRVoQaBfo-] found
Submit result: WemVMIhWJiiRyIo_ucsRVoQaBfo- has been confirmed
Track | CTDB Status
1 | (148/156) Accurately ripped
2 | (148/156) Accurately ripped
3 | (148/156) Accurately ripped
4 | (148/156) Accurately ripped
5 | (147/156) Accurately ripped
6 | (147/156) Accurately ripped
7 | (138/156) Accurately ripped

foobar2000 1.3.16 / Dynamic Range Meter 1.1.1
log date: 2017-11-29 11:06:42

––––––––––––––––––––––––––––––––––––––––
Analyzed: John Mayer / Any Given Thursday (CD2)
––––––––––––––––––––––––––––––––––––––––

DR Peak RMS Duration Track
––––––––––––––––––––––––––––––––––––––––
DR9 -0.10 dB -11.50 dB 8:24 01-Why Georgia
DR8 -0.10 dB -10.10 dB 6:06 02-Your Body Is A Wonderland
DR9 -0.10 dB -11.16 dB 5:02 03-My Stupid Mouth
DR9 -0.10 dB -12.44 dB 10:25 04-Covered In Rain
DR9 0.00 dB -11.04 dB 7:30 05-83
DR10 -0.10 dB -13.84 dB 7:37 06-Comfortable
DR10 -0.08 dB -13.40 dB 10:22 07-Neon
––––––––––––––––––––––––––––––––––––––––

Number of tracks: 7
Official DR value: DR9

Samplerate: 44100 Hz
Channels: 2
Bits per sample: 16
Bitrate: 908 kbps
Codec: FLAC
================================================================================

[CUETools log; Date: 29.11.2017 11:06:34; Version: 2.1.5]
[CTDB TOCID: WemVMIhWJiiRyIo_ucsRVoQaBfo-] found.
Track | CTDB Status
1 | (149/157) Accurately ripped
2 | (149/157) Accurately ripped
3 | (149/157) Accurately ripped
4 | (149/157) Accurately ripped
5 | (148/157) Accurately ripped
6 | (148/157) Accurately ripped
7 | (139/157) Accurately ripped
[AccurateRip ID: 000e71a1-005756ee-640cfe07] found.
Track [ CRC | V2 ] Status
01 [fe8d7938|92805e90] (000+002/232) Accurately ripped
02 [10f61a7e|cd456ba8] (000+002/240) Accurately ripped
03 [8733ed87|ea023a85] (000+002/237) Accurately ripped
04 [19def5c4|2c8b097f] (000+002/229) Accurately ripped
05 [96f0d094|a54c1d4d] (000+002/232) Accurately ripped
06 [05add789|077f1750] (000+002/230) Accurately ripped
07 [aee70e45|d9fec7d7] (000+002/226) Accurately ripped
Offsetted by 2185:
01 [b306cc9e] (002/232) Accurately ripped
02 [50bbd8b1] (002/240) Accurately ripped
03 [93154983] (003/237) Accurately ripped
04 [3b9878b6] (002/229) Accurately ripped
05 [0f200c63] (002/232) Accurately ripped
06 [95e605aa] (002/230) Accurately ripped
07 [96cd7dfa] (002/226) Accurately ripped
Offsetted by 2221:
01 [fd82f983] (015/232) Accurately ripped
02 [772d14fa] (016/240) Accurately ripped
03 [9f57ffd2] (015/237) Accurately ripped
04 [770d17f0] (016/229) Accurately ripped
05 [41900453] (015/232) Accurately ripped
06 [f12ab071] (015/230) Accurately ripped
07 [209c6964] (015/226) Accurately ripped
Offsetted by 2820:
01 [86f9a7a9] (004/232) Accurately ripped
02 [41ebc6ab] (004/240) Accurately ripped
03 [8e127bdc] (004/237) Accurately ripped
04 [8444405a] (003/229) Accurately ripped
05 [d40853c4] (004/232) Accurately ripped
06 [78e47994] (003/230) Accurately ripped
07 [6d123259] (004/226) Accurately ripped

Track Peak [ CRC32 ] [W/O NULL] [ LOG ]
– 100,0 [EB978F77] [5E91713E] CRC32
01 98,8 [97BFE18C] [8FAB9D64]
02 98,8 [42576C40] [D2C64932]
03 98,8 [2A9701D6] [FB8968DB]
04 98,8 [CDDA8B7D] [18C56B8D]
05 100,0 [3552606C] [2C9E9C5D]
06 98,8 [B6B7803C] [9958F5E3]
07 99,1 [3E197996] [1281E20F]

Personnel:
John Mayer – vocals, guitars, keyboards
Michael Chaves – keyboards, guitars, backing vocals
David LaBruyere – bass guitars
Stephen Chopek – drums, percussion

John Mayer - Any Given Thursday (2003)

All thanks go to sergych

>>> John Mayer in my Blog <<<

Download from icerbox.com: