Tags
Language
Tags

John Paul Jones - Zooma (1999) {Japan 1st Press}

Posted By: popsakov
John Paul Jones - Zooma (1999) {Japan 1st Press}

John Paul Jones - Zooma (1999) {Japan 1st Press}
EAC Rip | FLAC (Img) + Cue + Log ~ 332 Mb | MP3 CBR320 ~ 123 Mb
Covers Included | 00:49:08 | RAR 5% Recovery
Progressive Rock / Avantgarde / Experimental / Instrumental Rock
Discipline Global Mobile / Pony Canyon #PCCY-01410

John Paul Jones stayed quiet for years after the disbandment of Led Zeppelin, performing the occasional arranging, soundtrack, or production gig, or collaborating with such avant garde musicians as Diamanda Galas. Throughout it all, he never released a full-fledged solo album – until the fall of 1999, when he unleashed Zooma. Anyone that was following who Jones worked with in the '90s – including Galas, the Butthole Surfers, and R.E.M. – shouldn't be entirely surprised by the depth, range, and gleeful strangeness on Zooma, but those expecting something like Led Zeppelin IV will be disappointed. That's not to say that there's no Zeppelin here at all. Jones was a key member of Zep, contributing heavily to their sonic majesty and experimental bent, all things that are apparent throughout the album. The difference is, Jones frees himself and his collaborators – including Paul Leary and members of the London Symphony Orchestra – to push the envelope hard by making Zooma an instrumental effort. Freed from the boundaries of songs, but not compositions, Jones crafts a series of nine truly impressive songs, blending together blues, worldbeat, heavy rock, jazz, and the avant-garde into a distinctive, unpredictable, and original sound. It may have been a long wait to receive the first solo album from Jones, but the end result makes it all worthwhile.

~ Stephen Thomas Erlewine, All Music

***************

John Paul Jones - Zooma (1999) {Japan 1st Press}

Track List:

01. Zooma [0:05:50.17]
02. Grind [0:05:22.55]
03. The Smile of Your Shadow [0:05:50.00]
04. Goose [0:04:58.53]
05. Bass 'n' Drums [0:02:32.20]
06. B. Fingers [0:05:26.12]
07. Snake Eyes [0:07:32.20]
08. Nosumi Blues [0:05:48.18]
09. Tidal [0:04:46.15]
10. Fanfare for the Millennium (bonus track for Japan only) [0:01:01.45]

Personnel:
John Paul Jones - bass guitar, double bass, keyboards, guitars, electric mandola, Kyma
Pete Thomas - drums, percussion
Paul Leary - lead guitar
Trey Gunn - rhythm guitar, Warr guitar
Denny Fongheiser - djembe, drums

Exact Audio Copy V1.3 from 2. September 2016

EAC extraction logfile from 9. January 2019, 12:45

John Paul Jones / Zooma [PCCY-01410]

Used drive : HL-DT-STBD-RE BH10LS38 Adapter: 1 ID: 0

Read mode : Secure
Utilize accurate stream : Yes
Defeat audio cache : Yes
Make use of C2 pointers : No

Read offset correction : 667
Overread into Lead-In and Lead-Out : No
Fill up missing offset samples with silence : Yes
Delete leading and trailing silent blocks : No
Null samples used in CRC calculations : Yes
Used interface : Native Win32 interface for Win NT & 2000

Used output format : User Defined Encoder
Selected bitrate : 128 kBit/s
Quality : High
Add ID3 tag : No
Command line compressor : C:\Program Files (x86)\Exact Audio Copy\Flac\flac.exe
Additional command line options : -V -8 -T "Date=%year%" -T "Genre=%genre%" %source%


TOC of the extracted CD

Track | Start | Length | Start sector | End sector
––––––––––––––––––––––––––––-
1 | 0:00.00 | 5:50.17 | 0 | 26266
2 | 5:50.17 | 5:22.55 | 26267 | 50471
3 | 11:12.72 | 5:50.00 | 50472 | 76721
4 | 17:02.72 | 4:58.53 | 76722 | 99124
5 | 22:01.50 | 2:32.20 | 99125 | 110544
6 | 24:33.70 | 5:26.12 | 110545 | 135006
7 | 30:00.07 | 7:32.20 | 135007 | 168926
8 | 37:32.27 | 5:48.18 | 168927 | 195044
9 | 43:20.45 | 4:46.15 | 195045 | 216509
10 | 48:06.60 | 1:01.45 | 216510 | 221129


Range status and errors

Selected range

Filename D:\Rips by Alder\John Paul Jones - Zooma [PCCY-01410].wav

Peak level 100.0 %
Extraction speed 7.7 X
Range quality 100.0 %
Test CRC 02D8E10F
Copy CRC 02D8E10F
Copy OK

No errors occurred


AccurateRip summary

Track 1 accurately ripped (confidence 8) [5F4D1119] (AR v2)
Track 2 accurately ripped (confidence 8) [2F5C7DDF] (AR v2)
Track 3 accurately ripped (confidence 8) [8E333BB3] (AR v2)
Track 4 accurately ripped (confidence 8) [5B1A36C6] (AR v2)
Track 5 accurately ripped (confidence 8) [085978D0] (AR v2)
Track 6 accurately ripped (confidence 8) [5AA957E5] (AR v2)
Track 7 accurately ripped (confidence 8) [59645EB8] (AR v2)
Track 8 accurately ripped (confidence 8) [2888D3D7] (AR v2)
Track 9 accurately ripped (confidence 8) [FC132710] (AR v2)
Track 10 accurately ripped (confidence 8) [B5F75992] (AR v2)

All tracks accurately ripped

End of status report

–– CUETools DB Plugin V2.1.6

[CTDB TOCID: SKrCiZsfqBReqWdZM4YBBe.zDIA-] found
Submit result: SKrCiZsfqBReqWdZM4YBBe.zDIA- has been confirmed
Track | CTDB Status
1 | (12/12) Accurately ripped
2 | (12/12) Accurately ripped
3 | (12/12) Accurately ripped
4 | (12/12) Accurately ripped
5 | (12/12) Accurately ripped
6 | (12/12) Accurately ripped
7 | (12/12) Accurately ripped
8 | (12/12) Accurately ripped
9 | (12/12) Accurately ripped
10 | (12/12) Accurately ripped


==== Log checksum 86A0E137FAD3DF6A05A27EB70D238D2381F6A1C87BF21F1DBF11315726F2DD85 ====

[CUETools log; Date: 17.01.2019 19:37:21; Version: 2.1.6]
[CTDB TOCID: SKrCiZsfqBReqWdZM4YBBe.zDIA-] found.
Track | CTDB Status
1 | (13/13) Accurately ripped
2 | (13/13) Accurately ripped
3 | (13/13) Accurately ripped
4 | (13/13) Accurately ripped
5 | (13/13) Accurately ripped
6 | (13/13) Accurately ripped
7 | (13/13) Accurately ripped
8 | (13/13) Accurately ripped
9 | (13/13) Accurately ripped
10 | (13/13) Accurately ripped
[AccurateRip ID: 0013d526-009d751e-7a0b840a] found.
Track [ CRC | V2 ] Status
01 [14f1f947|5f4d1119] (0+8/8) Accurately ripped
02 [fda014af|2f5c7ddf] (0+8/8) Accurately ripped
03 [139d61c4|8e333bb3] (0+8/8) Accurately ripped
04 [5aef2bbb|5b1a36c6] (0+8/8) Accurately ripped
05 [423ca9f5|085978d0] (0+8/8) Accurately ripped
06 [470ad213|5aa957e5] (0+8/8) Accurately ripped
07 [4ebf9bb6|59645eb8] (0+8/8) Accurately ripped
08 [05adba4f|2888d3d7] (0+8/8) Accurately ripped
09 [d43ef97b|fc132710] (0+8/8) Accurately ripped
10 [fe2744ee|b5f75992] (0+8/8) Accurately ripped

Track Peak [ CRC32 ] [W/O NULL] [ LOG ]
– 100,0 [02D8E10F] [51505F15] CRC32
01 95,1 [FC5579E7] [50610076]
02 92,8 [98BF8325] [4B8C1F6A]
03 100,0 [016856BE] [A7934595]
04 97,1 [82F4984A] [089FD603]
05 99,9 [34009489] [18D01DB7]
06 97,0 [20A41EC2] [8EF0DA3E]
07 92,8 [FCC634A4] [CC637B8B]
08 99,6 [C4464091] [4964BD98]
09 99,6 [39059CE5] [6EFD4F89]
10 98,6 [4F0ED104] [9DE75887]

John Paul Jones - Zooma (1999) {Japan 1st Press}


All thanks go to Alder

>>> John Paul Jones in my Blog <<<

DOWNLOAD: