Subcategories

John Eliot Gardiner - Bach: St Matthew Passion BWV 244 (2017)

Posted By: SERTiL
John Eliot Gardiner - Bach: St Matthew Passion BWV 244 (2017)

John Eliot Gardiner - Bach: St Matthew Passion BWV 244
EAC Rip | FLAC (tracks)+cue, log, m3u, d. booklet | 160:28 min | 683 MB
Label: Soli Deo Gloria ‎– SDG725 | Tracks: 68 | Rls.date: 2017
Classical, Vocal, Choral

A new live recording of Bach’s St Matthew Passion (Matthäuspassion BWV 244), recorded in Pisa Cathedral during the Anima Mundi Festival as part of the Monteverdi Choir and Orchestra’s 2016 tour.

As well as the full sung texts, the booklet includes both a programme note by Sir John Eliot Gardiner as well as his tour notes: written both before and during their 6-month international tour – which began in Valencia in March and concluded with this performance in Pisa on 22 September – these include diary entries and notes given during rehearsals or sent in the aftermath of concerts to the performers (who were performing from memory).

All notes and texts are included in English, German and French translations.

New recording is exceptional in its clarity, the summation of John Eliot Gardiner's experience of the music. –Financial Times, Mar'17

ALBUM OF THE WEEK Having issued the church cantatas for his SDG label, Gardiner has embarked on 'remakes' of Bach's great liturgical works: this Matthew Passion comes from a performance at Pisa Cathedral in 2016 and it marks a radical departure from his account for DG's Archiv. Now, although the choral forces are large by modern standards (28 singers), he eschews big-name soloists for the arias, assigning them, as Bach would have, to his finest choristers. Eleanor Minney's androgynous, unfruity alto is an excellent compromise for Bach's boy singer in the emotional heart of the work, Erbarme dich, while Ashley Riches is excellent in Gerne will ich mich bequemen and Komm susses Kreuz. The gain is that the emphasis on the Passion as a community rite with the chorales implying the presence of a singing congregation and the universal message of the work are underlined. James Gilchrist is an incisive Evangelist, gripping in the passages of drama, and Stephan Loges a noble-toned, idiomatic Christus. Gardiner's Bach remains a lodestar, provided you are not wedded to one-voice-to-a-part minimalism. –Sunday Times, 16 Apr'17

RECORDING OF THE MONTH Sir John Eliot Gardiner's leadership and vision from his use of primarily choir soloists to his conveying of the work s overall journey make for an immensely moving St Matthew Passion. If a Passion has no sense of community it has nothing, and this is surely the making of Gardiner's account. This is a memorable and moving St Matthew, and for all the right reasons. Musically it is very fine. The choir are excellent, of course, with a solid but clear and intimate sound even in the larger choruses, no end of expressive means in the chorales, and a thrilling quickness in the crowd choruses. Gardiner asks for a lot of quiet singing from them and the execute it with superbly controlled beauty. The orchestra is as skilled and musical as you like in their obbligatos, and exquisitely responsive to Gardiner's subtle shaping…The experienced Evangelist of James Gilchist and Christus of Stephen Loges are not to be faulted, and none of the nine young aria soloists is a weak link…you will rarely find the same careful relishing of text, which treats the German words almost as rhythmical and textural sounds in themselves rather than theological pronouncements…What really makes this one special, however, is its emotional integrity, coming not from an affected theatricality but from a pervading air or profound sadness…In his booklet-note Gardiner repeats his assertion that Bach s great skill as an artist lay in his ability to write music with supreme power to console, and it is clear that this is what he has looked for here. That his considerable experience has enabled him to find it in such a thoughtfully moulded, expertly executed and deeply committed reading, so honestly communicative of its intent and so free of self-conscious monumentalism, sententiousness or melodramatics, is why I believe it to be one of his finest achievements. /// he combination of James Gilchrist and Neil Davies as Evangalist and Jesus…is ideal. –Gramophone, April'17/// Choir and Organ, May/June'17

TRACKLIST

Johann Sebastian Bach (1685-1750)

1. Part I: Kommt, ihr Töchter, helft mir klagen (Chorus)
2. Part I: Recitative: Da Jesus diese Rede vollendet hatte (Evangelist, Jesus)
3. Part I: Chorale: Herzliebster Jesu, was hast du verbrochen (Chorus)
4. Part I: Recitative: Da versammleten sich die Hohenpriester (Evangelist, Chorus, Jesus)
5. Part I: Recitative: Du lieber Heiland du (Alto)
6. Part I: Aria: Buß und Reu (Alto)
7. Part I: Recitative: Da ging hin der Zwölfen einer (Evangelist, Judas)
8. Part I: Blute nur, du liebes Herz (Soprano)
9. Part I: Recitative and Chorus: Aber am ersten Tage der süßen Brot (Evangelist, Chorus, Jesus)
10. Part I: Chorale: Ich bin's, ich sollte büßen (Chorus)
11. Part I: Recitative: Er antwortete und sprach (Evangelist, Jesus, Judas)
12. Part I: Recitative: Wiewohl mein Herz in Tränen schwimmt (Soprano)
13. Part I: Aria: Ich will dir mein Herze schenken (Soprano)
14. Part I: Recitative: Und da sie den Lobgesang gesprochen hatten (Evangelist, Jesus)
15. Part I: Chorale: Erkenne mich, mein Hüter (Chorus)
16. Part I: Recitative: Petrus aber antwortete (Petrus, Evangelist, Jesus)
17. Part I: Chorale: Ich will hier bei dir stehen (Chorus)
18. Part I: Recitative: Da kam Jesus mit ihnen zu einem Hofe (Evangelist, Jesus)
19. Part I: Recitative and Chorale: O Schmerz, hier zittert das gequälte Herz (Tenor, Chorus)
20. Part I: Aria and Chorus: Ich will bei meinem Jesu wachen (Tenor, Chorus)
21. Part I: Recitative: Und ging hin ein wenig (Evangelist, Jesus)
22. Part I: Recitative: Der Heiland fällt vor seinem Vater nieder (Bass)
23. Part I: Aria: Gerne will ich mich bequemen (Bass)
24. Part I: Recitative: Und er kam zu seinen Jüngern (Evangelist, Jesus)
25. Part I: Chorale: Was mein Gott will, das g'scheh allzeit (Chorus)
26. Part I: Recitative: Und er kam und fand sie aber schlafend (Evangelist, Jesus, Judas)
27. Part I: Aria and Chorus: So ist mein Jesus nun gefangen (Alto, Soprano, Chorus)
28. Part I: Recitative: Und siehe, einer aus denen (Evangelist, Jesus)
29. Part I: Chorale: O Mensch, bewein dein Sünde groß (Chorus)
30. Part II: Aria and Chorus: Ach! Nun ist mein Jesus hin (Alto, Chorus)
31..Part II: Recitative: Die aber Jesum gegriffen hatten (Evangelist)
32. Part II: Chorale: Mir hat die Welt trüglich gericht' (Chorus)
33. Part II: Recitative: Und wiewohl viel falsche Zeugen herzutraten (Evangelist, Testis, Pontifex)
34. Part II: Recitative: Mein Jesus schweigt zu falschen Lügen stille (Tenor)
35. Part II: Aria: Geduld! (Tenor)
36. Part II: Recitative and Chorus: Und der Hohepriester antwortete (Evangelist, Pontifex, Jesus, Chorus)
37. Part II: Chorale: Wer hat dich so geschlagen (Chorus)

Exact Audio Copy V1.3 from 2. September 2016

EAC extraction logfile from 23. August 2017, 23:41

Monteverdi Choir / English Baroque Soloists / John Eliot Gardiner / St Matthew Passion

Used drive : MITSUMI CR-48X9TE Adapter: 1 ID: 0

Read mode : Secure
Utilize accurate stream : Yes
Defeat audio cache : Yes
Make use of C2 pointers : No

Read offset correction : 733
Overread into Lead-In and Lead-Out : No
Fill up missing offset samples with silence : Yes
Delete leading and trailing silent blocks : No
Null samples used in CRC calculations : Yes
Used interface : Native Win32 interface for Win NT & 2000
Gap handling : Appended to previous track

Used output format : User Defined Encoder
Selected bitrate : 1024 kBit/s
Quality : High
Add ID3 tag : No
Command line compressor : C:\Program Files (x86)\Exact Audio Copy\Flac\flac.exe
Additional command line options : -8 -e -p -V -T "ARTIST=%artist%" -T "TITLE=%title%" -T "ALBUM=%albumtitle%" -T "DATE=%year%" -T "TRACKNUMBER=%tracknr%" -T "GENRE=%genre%" -T "PERFORMER=%albuminterpret%" -T "COMPOSER=%composer%" %haslyrics%–tag-from-file=LYRICS="%lyricsfile%"%haslyrics% -T "ALBUMARTIST=%albumartist%" -T "DISCNUMBER=%cdnumber%" -T "TOTALDISCS=%totalcds%" -T "TOTALTRACKS=%numtracks%" -T "COMMENT=%comment%" %source% -o %dest%


TOC of the extracted CD

Track | Start | Length | Start sector | End sector
––––––––––––––––––––––––––––-
1 | 0:00.00 | 6:52.39 | 0 | 30938
2 | 6:52.39 | 0:36.36 | 30939 | 33674
3 | 7:29.00 | 0:41.11 | 33675 | 36760
4 | 8:10.11 | 2:58.58 | 36761 | 50168
5 | 11:08.69 | 0:51.15 | 50169 | 54008
6 | 12:00.09 | 3:55.36 | 54009 | 71669
7 | 15:55.45 | 0:38.74 | 71670 | 74593
8 | 16:34.44 | 4:26.34 | 74594 | 94577
9 | 21:01.03 | 2:04.33 | 94578 | 103910
10 | 23:05.36 | 0:44.05 | 103911 | 107215
11 | 23:49.41 | 2:44.14 | 107216 | 119529
12 | 26:33.55 | 1:18.34 | 119530 | 125413
13 | 27:52.14 | 3:13.61 | 125414 | 139949
14 | 31:06.00 | 0:57.50 | 139950 | 144274
15 | 32:03.50 | 0:58.58 | 144275 | 148682
16 | 33:02.33 | 0:55.09 | 148683 | 152816
17 | 33:57.42 | 1:02.11 | 152817 | 157477
18 | 34:59.53 | 1:29.31 | 157478 | 164183
19 | 36:29.09 | 1:57.51 | 164184 | 173009
20 | 38:26.60 | 4:55.73 | 173010 | 195207
21 | 43:22.58 | 0:40.57 | 195208 | 198264
22 | 44:03.40 | 0:54.29 | 198265 | 202343
23 | 44:57.69 | 3:52.14 | 202344 | 219757
24 | 48:50.08 | 1:11.34 | 219758 | 225116
25 | 50:01.42 | 0:58.35 | 225117 | 229501
26 | 51:00.02 | 2:17.15 | 229502 | 239791
27 | 53:17.17 | 5:02.45 | 239792 | 262486
28 | 58:19.62 | 2:01.13 | 262487 | 271574
29 | 60:21.00 | 5:35.05 | 271575 | 296704
30 | 65:56.05 | 3:27.61 | 296705 | 312290
31 | 69:23.66 | 1:02.27 | 312291 | 316967
32 | 70:26.18 | 0:38.73 | 316968 | 319890
33 | 71:05.16 | 1:11.49 | 319891 | 325264
34 | 72:16.65 | 1:03.71 | 325265 | 330060
35 | 73:20.61 | 3:47.38 | 330061 | 347123
36 | 77:08.24 | 1:58.19 | 347124 | 355992
37 | 79:06.43 | 0:59.02 | 355993 | 360419


Track 1

Filename C:\rip\John Eliot Gardiner, Monteverdi Choir - Johann Sebastian Bach - St Matthew Passion (2017) {SDG 725} [FLAC-CD]\CD1\01 - Kommt, ihr Tochter.wav

Pre-gap length 0:00:02.00

Peak level 84.0 %
Extraction speed 1.1 X
Track quality 100.0 %
Test CRC 4B4315FF
Copy CRC 4B4315FF
Accurately ripped (confidence 6) [D1104DAE] (AR v2)
Copy OK

Track 2

Filename C:\rip\John Eliot Gardiner, Monteverdi Choir - Johann Sebastian Bach - St Matthew Passion (2017) {SDG 725} [FLAC-CD]\CD1\02 - Da Jesus diese Rede.wav

Peak level 30.7 %
Extraction speed 0.3 X
Track quality 99.7 %
Test CRC 9E764F08
Copy CRC 9E764F08
Accurately ripped (confidence 6) [DDFFDB70] (AR v2)
Copy OK

Track 3

Filename C:\rip\John Eliot Gardiner, Monteverdi Choir - Johann Sebastian Bach - St Matthew Passion (2017) {SDG 725} [FLAC-CD]\CD1\03 - Herzliebster Jesu.wav

Peak level 57.7 %
Extraction speed 0.4 X
Track quality 99.7 %
Test CRC A9996DC0
Copy CRC A9996DC0
Accurately ripped (confidence 6) [5E9E9354] (AR v2)
Copy OK

Track 4

Filename C:\rip\John Eliot Gardiner, Monteverdi Choir - Johann Sebastian Bach - St Matthew Passion (2017) {SDG 725} [FLAC-CD]\CD1\04 - Da versammleten sich.wav

Peak level 74.5 %
Extraction speed 0.8 X
Track quality 99.9 %
Test CRC ACBE44AB
Copy CRC ACBE44AB
Accurately ripped (confidence 6) [8AB02614] (AR v2)
Copy OK

Track 5

Filename C:\rip\John Eliot Gardiner, Monteverdi Choir - Johann Sebastian Bach - St Matthew Passion (2017) {SDG 725} [FLAC-CD]\CD1\05 - Du lieber Heiland du.wav

Peak level 32.5 %
Extraction speed 0.7 X
Track quality 100.0 %
Test CRC 2FAA9376
Copy CRC 2FAA9376
Accurately ripped (confidence 6) [B8A04C0B] (AR v2)
Copy OK

Track 6

Filename C:\rip\John Eliot Gardiner, Monteverdi Choir - Johann Sebastian Bach - St Matthew Passion (2017) {SDG 725} [FLAC-CD]\CD1\06 - Buss und Reu.wav

Peak level 45.3 %
Extraction speed 1.0 X
Track quality 100.0 %
Test CRC 46FD8136
Copy CRC 46FD8136
Accurately ripped (confidence 5) [0D9D00E6] (AR v2)
Copy OK

Track 7

Filename C:\rip\John Eliot Gardiner, Monteverdi Choir - Johann Sebastian Bach - St Matthew Passion (2017) {SDG 725} [FLAC-CD]\CD1\07 - Da ging hin der Zwolfen einer.wav

Peak level 28.7 %
Extraction speed 0.6 X
Track quality 100.0 %
Test CRC 41CADFE2
Copy CRC 41CADFE2
Accurately ripped (confidence 6) [88F2E2DF] (AR v2)
Copy OK

Track 8

Filename C:\rip\John Eliot Gardiner, Monteverdi Choir - Johann Sebastian Bach - St Matthew Passion (2017) {SDG 725} [FLAC-CD]\CD1\08 - Blute nur, du liebes Herz!.wav

Peak level 49.8 %
Extraction speed 1.0 X
Track quality 100.0 %
Test CRC C0325215
Copy CRC C0325215
Accurately ripped (confidence 6) [C901D136] (AR v2)
Copy OK

Track 9

Filename C:\rip\John Eliot Gardiner, Monteverdi Choir - Johann Sebastian Bach - St Matthew Passion (2017) {SDG 725} [FLAC-CD]\CD1\09 - Aber am ersten Tage.wav

Peak level 32.6 %
Extraction speed 0.9 X
Track quality 100.0 %
Test CRC 843C1299
Copy CRC 843C1299
Accurately ripped (confidence 6) [5E814429] (AR v2)
Copy OK

Track 10

Filename C:\rip\John Eliot Gardiner, Monteverdi Choir - Johann Sebastian Bach - St Matthew Passion (2017) {SDG 725} [FLAC-CD]\CD1\10 - Ich bins, ich sollte bussen.wav

Peak level 54.2 %
Extraction speed 0.7 X
Track quality 100.0 %
Test CRC E4C9A721
Copy CRC E4C9A721
Accurately ripped (confidence 6) [F6B31458] (AR v2)
Copy OK

Track 11

Filename C:\rip\John Eliot Gardiner, Monteverdi Choir - Johann Sebastian Bach - St Matthew Passion (2017) {SDG 725} [FLAC-CD]\CD1\11 - Er antwortete und sprach.wav

Peak level 37.6 %
Extraction speed 1.0 X
Track quality 100.0 %
Test CRC 5FFF0417
Copy CRC 5FFF0417
Accurately ripped (confidence 6) [D6AEB96B] (AR v2)
Copy OK

Track 12

Filename C:\rip\John Eliot Gardiner, Monteverdi Choir - Johann Sebastian Bach - St Matthew Passion (2017) {SDG 725} [FLAC-CD]\CD1\12 - Wiewohl mein Herz.wav

Peak level 46.7 %
Extraction speed 0.9 X
Track quality 100.0 %
Test CRC 5178C137
Copy CRC 5178C137
Accurately ripped (confidence 6) [3B573BAF] (AR v2)
Copy OK

Track 13

Filename C:\rip\John Eliot Gardiner, Monteverdi Choir - Johann Sebastian Bach - St Matthew Passion (2017) {SDG 725} [FLAC-CD]\CD1\13 - Ich will dir mein Herze schenken.wav

Peak level 42.2 %
Extraction speed 1.1 X
Track quality 100.0 %
Test CRC 0E00E71C
Copy CRC 0E00E71C
Accurately ripped (confidence 5) [F6A82E64] (AR v2)
Copy OK

Track 14

Filename C:\rip\John Eliot Gardiner, Monteverdi Choir - Johann Sebastian Bach - St Matthew Passion (2017) {SDG 725} [FLAC-CD]\CD1\14 - Und da sie den Lobgesang.wav

Peak level 57.8 %
Extraction speed 0.9 X
Track quality 100.0 %
Test CRC 0889CDFF
Copy CRC 0889CDFF
Accurately ripped (confidence 6) [311196BB] (AR v2)
Copy OK

Track 15

Filename C:\rip\John Eliot Gardiner, Monteverdi Choir - Johann Sebastian Bach - St Matthew Passion (2017) {SDG 725} [FLAC-CD]\CD1\15 - Erkenne mich, mein Huter.wav

Peak level 47.5 %
Extraction speed 0.5 X
Track quality 99.8 %
Test CRC 7CF91E4D
Copy CRC 7CF91E4D
Accurately ripped (confidence 6) [48043E2E] (AR v2)
Copy OK

Track 16

Filename C:\rip\John Eliot Gardiner, Monteverdi Choir - Johann Sebastian Bach - St Matthew Passion (2017) {SDG 725} [FLAC-CD]\CD1\16 - Petrus aber antwortete.wav

Peak level 36.1 %
Extraction speed 0.5 X
Track quality 99.8 %
Test CRC CE29B6E4
Copy CRC CE29B6E4
Accurately ripped (confidence 6) [4DC7714C] (AR v2)
Copy OK

Track 17

Filename C:\rip\John Eliot Gardiner, Monteverdi Choir - Johann Sebastian Bach - St Matthew Passion (2017) {SDG 725} [FLAC-CD]\CD1\17 - Ich will hier bei dir stehen.wav

Peak level 35.4 %
Extraction speed 0.7 X
Track quality 100.0 %
Test CRC 0FCC91B7
Copy CRC 0FCC91B7
Accurately ripped (confidence 6) [AF28ADF8] (AR v2)
Copy OK

Track 18

Filename C:\rip\John Eliot Gardiner, Monteverdi Choir - Johann Sebastian Bach - St Matthew Passion (2017) {SDG 725} [FLAC-CD]\CD1\18 - Da kam Jesus.wav

Peak level 30.7 %
Extraction speed 0.5 X
Track quality 99.7 %
Test CRC E16DB69D
Copy CRC E16DB69D
Accurately ripped (confidence 6) [2214117F] (AR v2)
Copy OK

Track 19

Filename C:\rip\John Eliot Gardiner, Monteverdi Choir - Johann Sebastian Bach - St Matthew Passion (2017) {SDG 725} [FLAC-CD]\CD1\19 - O Schmerz!.wav

Peak level 37.0 %
Extraction speed 1.1 X
Track quality 100.0 %
Test CRC D02B4147
Copy CRC D02B4147
Accurately ripped (confidence 6) [527BBE41] (AR v2)
Copy OK

Track 20

Filename C:\rip\John Eliot Gardiner, Monteverdi Choir - Johann Sebastian Bach - St Matthew Passion (2017) {SDG 725} [FLAC-CD]\CD1\20 - Ich will bei meinem Jesu wachen.wav

Peak level 64.9 %
Extraction speed 0.9 X
Track quality 99.9 %
Test CRC DA84457C
Copy CRC DA84457C
Accurately ripped (confidence 6) [6D5B1891] (AR v2)
Copy OK

Track 21

Filename C:\rip\John Eliot Gardiner, Monteverdi Choir - Johann Sebastian Bach - St Matthew Passion (2017) {SDG 725} [FLAC-CD]\CD1\21 - Und ging hin ein wenig.wav

Peak level 28.1 %
Extraction speed 0.7 X
Track quality 100.0 %
Test CRC 70C6DEFE
Copy CRC 70C6DEFE
Accurately ripped (confidence 6) [1236A836] (AR v2)
Copy OK

Track 22

Filename C:\rip\John Eliot Gardiner, Monteverdi Choir - Johann Sebastian Bach - St Matthew Passion (2017) {SDG 725} [FLAC-CD]\CD1\22 - Der Heiland fallt.wav

Peak level 52.2 %
Extraction speed 0.8 X
Track quality 100.0 %
Test CRC 235F32CF
Copy CRC 235F32CF
Accurately ripped (confidence 6) [C2ADA9AA] (AR v2)
Copy OK

Track 23

Filename C:\rip\John Eliot Gardiner, Monteverdi Choir - Johann Sebastian Bach - St Matthew Passion (2017) {SDG 725} [FLAC-CD]\CD1\23 - Gerne will ich mich bequemen.wav

Peak level 28.5 %
Extraction speed 1.3 X
Track quality 100.0 %
Test CRC 8ED44DFC
Copy CRC 8ED44DFC
Accurately ripped (confidence 6) [7A0CE3F4] (AR v2)
Copy OK

Track 24

Filename C:\rip\John Eliot Gardiner, Monteverdi Choir - Johann Sebastian Bach - St Matthew Passion (2017) {SDG 725} [FLAC-CD]\CD1\24 - Und er kam zu seinen Jungern.wav

Peak level 34.8 %
Extraction speed 1.0 X
Track quality 100.0 %
Test CRC 53B18638
Copy CRC 53B18638
Accurately ripped (confidence 6) [275F30B4] (AR v2)
Copy OK

Track 25

Filename C:\rip\John Eliot Gardiner, Monteverdi Choir - Johann Sebastian Bach - St Matthew Passion (2017) {SDG 725} [FLAC-CD]\CD1\25 - Was mein Gott will.wav

Peak level 56.2 %
Extraction speed 0.7 X
Track quality 100.0 %
Test CRC A529FCD1
Copy CRC A529FCD1
Accurately ripped (confidence 6) [154E19D2] (AR v2)
Copy OK

Track 26

Filename C:\rip\John Eliot Gardiner, Monteverdi Choir - Johann Sebastian Bach - St Matthew Passion (2017) {SDG 725} [FLAC-CD]\CD1\26 - Und er kam und fand.wav

Peak level 40.0 %
Extraction speed 1.6 X
Track quality 100.0 %
Test CRC CB68265C
Copy CRC CB68265C
Accurately ripped (confidence 6) [E6F07BD7] (AR v2)
Copy OK

Track 27

Filename C:\rip\John Eliot Gardiner, Monteverdi Choir - Johann Sebastian Bach - St Matthew Passion (2017) {SDG 725} [FLAC-CD]\CD1\27 - So ist mein Jesus nun gefangen.wav

Peak level 99.5 %
Extraction speed 1.3 X
Track quality 99.9 %
Test CRC 41FA1AFA
Copy CRC 41FA1AFA
Accurately ripped (confidence 6) [D2DB83A4] (AR v2)
Copy OK

Track 28

Filename C:\rip\John Eliot Gardiner, Monteverdi Choir - Johann Sebastian Bach - St Matthew Passion (2017) {SDG 725} [FLAC-CD]\CD1\28 - Und siehe, einer aus denen.wav

Peak level 37.6 %
Extraction speed 3.7 X
Track quality 99.9 %
Test CRC C4EAB4C8
Copy CRC C4EAB4C8
Accurately ripped (confidence 6) [DCFD0EDD] (AR v2)
Copy OK

Track 29

Filename C:\rip\John Eliot Gardiner, Monteverdi Choir - Johann Sebastian Bach - St Matthew Passion (2017) {SDG 725} [FLAC-CD]\CD1\29 - O Mensch, bewein dein Sunde gross.wav

Peak level 55.1 %
Extraction speed 4.6 X
Track quality 99.9 %
Test CRC 64B72DCC
Copy CRC 64B72DCC
Accurately ripped (confidence 6) [9EA300CD] (AR v2)
Copy OK

Track 30

Filename C:\rip\John Eliot Gardiner, Monteverdi Choir - Johann Sebastian Bach - St Matthew Passion (2017) {SDG 725} [FLAC-CD]\CD1\30 - Ach! Nun ist mein Jesus hin!.wav

Peak level 63.0 %
Extraction speed 1.7 X
Track quality 99.9 %
Test CRC BF85640D
Copy CRC BF85640D
Accurately ripped (confidence 6) [887569E3] (AR v2)
Copy OK

Track 31

Filename C:\rip\John Eliot Gardiner, Monteverdi Choir - Johann Sebastian Bach - St Matthew Passion (2017) {SDG 725} [FLAC-CD]\CD1\31 - Die aber Jesum gegriffen hatten.wav

Peak level 27.1 %
Extraction speed 2.6 X
Track quality 99.8 %
Test CRC 57A1D7AD
Copy CRC 57A1D7AD
Accurately ripped (confidence 6) [1DF3F3B9] (AR v2)
Copy OK

Track 32

Filename C:\rip\John Eliot Gardiner, Monteverdi Choir - Johann Sebastian Bach - St Matthew Passion (2017) {SDG 725} [FLAC-CD]\CD1\32 - Mir hat die Welt.wav

Peak level 55.6 %
Extraction speed 0.8 X
Track quality 100.0 %
Test CRC BEC1F4E9
Copy CRC BEC1F4E9
Accurately ripped (confidence 6) [5E422B2A] (AR v2)
Copy OK

Track 33

Filename C:\rip\John Eliot Gardiner, Monteverdi Choir - Johann Sebastian Bach - St Matthew Passion (2017) {SDG 725} [FLAC-CD]\CD1\33 - Und wiewohl viel falsche.wav

Peak level 28.5 %
Extraction speed 1.0 X
Track quality 100.0 %
Test CRC FACA05EE
Copy CRC FACA05EE
Accurately ripped (confidence 6) [337F99C0] (AR v2)
Copy OK

Track 34

Filename C:\rip\John Eliot Gardiner, Monteverdi Choir - Johann Sebastian Bach - St Matthew Passion (2017) {SDG 725} [FLAC-CD]\CD1\34 - Mein Jesus schweigt.wav

Peak level 15.7 %
Extraction speed 0.7 X
Track quality 100.0 %
Test CRC AAC01C8D
Copy CRC AAC01C8D
Accurately ripped (confidence 6) [84060DE2] (AR v2)
Copy OK

Track 35

Filename C:\rip\John Eliot Gardiner, Monteverdi Choir - Johann Sebastian Bach - St Matthew Passion (2017) {SDG 725} [FLAC-CD]\CD1\35 - Geduld!.wav

Peak level 33.4 %
Extraction speed 1.3 X
Track quality 100.0 %
Test CRC 2E5D6D37
Copy CRC 2E5D6D37
Accurately ripped (confidence 6) [7908AECC] (AR v2)
Copy OK

Track 36

Filename C:\rip\John Eliot Gardiner, Monteverdi Choir - Johann Sebastian Bach - St Matthew Passion (2017) {SDG 725} [FLAC-CD]\CD1\36 - Und der Hohepriester antwortete.wav

Peak level 84.2 %
Extraction speed 1.3 X
Track quality 100.0 %
Test CRC FB854E15
Copy CRC FB854E15
Accurately ripped (confidence 6) [91221DC6] (AR v2)
Copy OK

Track 37

Filename C:\rip\John Eliot Gardiner, Monteverdi Choir - Johann Sebastian Bach - St Matthew Passion (2017) {SDG 725} [FLAC-CD]\CD1\37 - Wer hat dich so geschlagen.wav

Peak level 20.8 %
Extraction speed 1.0 X
Track quality 100.0 %
Test CRC 88081053
Copy CRC 88081053
Accurately ripped (confidence 7) [DC623A38] (AR v2)
Copy OK


All tracks accurately ripped

No errors occurred

End of status report

–– CUETools DB Plugin V2.1.6

[CTDB TOCID: FGwhTvflMn5C5gLEcDlxVh.He5k-] found
Submit result: The operation has timed out
Track | CTDB Status
1 | (21/21) Accurately ripped
2 | (21/21) Accurately ripped
3 | (21/21) Accurately ripped
4 | (21/21) Accurately ripped
5 | (21/21) Accurately ripped
6 | (20/21) Accurately ripped
7 | (21/21) Accurately ripped
8 | (21/21) Accurately ripped
9 | (21/21) Accurately ripped
10 | (21/21) Accurately ripped
11 | (21/21) Accurately ripped
12 | (21/21) Accurately ripped
13 | (20/21) Accurately ripped
14 | (21/21) Accurately ripped
15 | (21/21) Accurately ripped
16 | (21/21) Accurately ripped
17 | (21/21) Accurately ripped
18 | (21/21) Accurately ripped
19 | (21/21) Accurately ripped
20 | (21/21) Accurately ripped
21 | (21/21) Accurately ripped
22 | (21/21) Accurately ripped
23 | (21/21) Accurately ripped
24 | (21/21) Accurately ripped
25 | (21/21) Accurately ripped
26 | (21/21) Accurately ripped
27 | (21/21) Accurately ripped
28 | (21/21) Accurately ripped
29 | (21/21) Accurately ripped
30 | (21/21) Accurately ripped
31 | (21/21) Accurately ripped
32 | (21/21) Accurately ripped
33 | (21/21) Accurately ripped
34 | (21/21) Accurately ripped
35 | (20/21) Accurately ripped
36 | (21/21) Accurately ripped
37 | (21/21) Accurately ripped


==== Log checksum 8B950AD945DDF63DA6B09589E4DD846B2247089B1F7E248746B24DBCAB69A898 ====


38. Part II: Recitative and Chorus: Petrus aber saß draußen im Palast (Evangelist, Petrus, Ancilla, Chorus)
39. Part II: Aria: Erbarme dich (Alto)
40. Part II: Chorale: Bin ich gleich von dir gewichen (Chorus)
41. Part II: Recitative and Chorus: Des Morgens aber hielten alle Hohepriester (Evangelist, Judas, Chorus, Pontifices)
42. Part II: Aria: Gebt mir meinen Jesum wieder (Bass)
43. Part II: Recitative: Sie hielten aber einen Rat (Evangelist, Pilatus, Jesus)
44. Part II: Chorale: Befiehl du deine Wege (Chorus)
45. Part II: Recitative and Chorus: Auf das Fest aber hatte der Landpfleger (Evangelist, Pilatus, Uxor Pilati, Chorus)
46. Part II: Chorale: Wie wunderbarlich ist doch diese Strafe (Chorus)
47. Part II: Recitative: Der Landpfleger sagte (Evangelist, Pilatus)
48. Part II: Recitative: Er hat uns allen wohlgetan (Soprano)
49. Part II: Aria: Aus Liebe will mein Heiland sterben (Soprano)
50. Part II: Recitative and Chorus: Sie schrieen aber noch mehr (Evangelist, Chorus, Pilatus)
51. Part II: Recitative: Erbarm es Gott (Alto)
52. Part II: Aria: Können Tränen meiner Wangen (Alto)
53. Part II: Recitative and Chorus: Da nahmen die Kriegsknechte (Evangelist, Chorus)
54. Part II: Chorale: O Haupt voll Blut und Wunden (Chorus)
55. Part II: Recitative: Und da sie ihn verspottet hatten (Evangelist)
56. Part II: Recitative: Ja! freilich will in uns das Fleisch und Blut (bass)
57. Part II: Aria: Komm, süßes Kreuz (Bass)
58. Part II: Recitative and Chorus: Und da sie an die Stätte kamen mit (Evangelist, Chorus)
59. Part II: Recitative: Ach Golgatha, unsel'ges Golgatha (Alto)
60. Part II: Aria and Chorus: Sehet, Jesus hat die Hand (Alto, Chorus)
61. Part II: Recitative and Chorus: Und von der sechsten Stunde an (Evangelist, Jesus, Chorus)
62. Part II: Chorale: Wenn ich einmal soll scheiden (Chorus)
63. Part II: Recitative and Chorus: Und siehe da, der Vorhang im Tempel zerriß (Evangelist, Chorus)
64. Part II: Recitative: Am Abend, da es kühle war (Bass)
65. Part II: Aria: Mache dich, mein Herze, rein (Bass)
66. Part II: Recitative and Chorus: Und Joseph nahm den Leib (Evangelist, Chorus, Pilatus)
67. Part II: Recitative and Chorus: Nun ist der Herr zur Ruh gebracht (Bass, Tenor, Alto, Soprano, Chorus)
68. Part II: Chorale: Wir setzen uns mit Tränen nieder (Chorus)

Exact Audio Copy V1.3 from 2. September 2016

EAC extraction logfile from 24. August 2017, 19:31

Monteverdi Choir / English Baroque Soloists / Sir John Eliot Gardiner / St Matthew Passion

Used drive : MITSUMI CR-48X9TE Adapter: 1 ID: 0

Read mode : Secure
Utilize accurate stream : Yes
Defeat audio cache : Yes
Make use of C2 pointers : No

Read offset correction : 733
Overread into Lead-In and Lead-Out : No
Fill up missing offset samples with silence : Yes
Delete leading and trailing silent blocks : No
Null samples used in CRC calculations : Yes
Used interface : Native Win32 interface for Win NT & 2000
Gap handling : Appended to previous track

Used output format : User Defined Encoder
Selected bitrate : 1024 kBit/s
Quality : High
Add ID3 tag : No
Command line compressor : C:\Program Files (x86)\Exact Audio Copy\Flac\flac.exe
Additional command line options : -8 -e -p -V -T "ARTIST=%artist%" -T "TITLE=%title%" -T "ALBUM=%albumtitle%" -T "DATE=%year%" -T "TRACKNUMBER=%tracknr%" -T "GENRE=%genre%" -T "PERFORMER=%albuminterpret%" -T "COMPOSER=%composer%" %haslyrics%–tag-from-file=LYRICS="%lyricsfile%"%haslyrics% -T "ALBUMARTIST=%albumartist%" -T "DISCNUMBER=%cdnumber%" -T "TOTALDISCS=%totalcds%" -T "TOTALTRACKS=%numtracks%" -T "COMMENT=%comment%" %source% -o %dest%


TOC of the extracted CD

Track | Start | Length | Start sector | End sector
––––––––––––––––––––––––––––-
1 | 0:00.00 | 2:27.03 | 0 | 11027
2 | 2:27.03 | 7:03.08 | 11028 | 42760
3 | 9:30.11 | 1:00.56 | 42761 | 47316
4 | 10:30.67 | 1:43.46 | 47317 | 55087
5 | 12:14.38 | 2:44.70 | 55088 | 67457
6 | 14:59.33 | 2:04.39 | 67458 | 76796
7 | 17:03.72 | 1:06.20 | 76797 | 81766
8 | 18:10.17 | 2:11.25 | 81767 | 91616
9 | 20:21.42 | 0:42.51 | 91617 | 94817
10 | 21:04.18 | 0:17.51 | 94818 | 96143
11 | 21:21.69 | 1:15.61 | 96144 | 101829
12 | 22:37.55 | 5:27.48 | 101830 | 126402
13 | 28:05.28 | 1:46.38 | 126403 | 134390
14 | 29:51.66 | 1:00.04 | 134391 | 138894
15 | 30:51.70 | 6:20.00 | 138895 | 167394
16 | 37:11.70 | 1:07.17 | 167395 | 172436
17 | 38:19.12 | 1:58.07 | 172437 | 181293
18 | 40:17.19 | 1:08.67 | 181294 | 186460
19 | 41:26.11 | 0:32.60 | 186461 | 188920
20 | 41:58.71 | 6:16.28 | 188921 | 217148
21 | 48:15.24 | 3:19.70 | 217149 | 232143
22 | 51:35.19 | 1:20.53 | 232144 | 238196
23 | 52:55.72 | 3:07.36 | 238197 | 252257
24 | 56:03.33 | 2:23.73 | 252258 | 263055
25 | 58:27.31 | 1:44.51 | 263056 | 270906
26 | 60:12.07 | 2:34.41 | 270907 | 282497
27 | 62:46.48 | 1:49.62 | 282498 | 290734
28 | 64:36.35 | 6:35.64 | 290735 | 320423
29 | 71:12.24 | 2:35.36 | 320424 | 332084
30 | 73:47.60 | 1:50.37 | 332085 | 340371
31 | 75:38.22 | 5:18.57 | 340372 | 364278


Track 1

Filename C:\rip\John Eliot Gardiner, Monteverdi Choir - Johann Sebastian Bach - St Matthew Passion (2017) {SDG 725} [FLAC-CD]\CD2\01 - Petrus aber sass draussen.wav

Pre-gap length 0:00:02.00

Peak level 40.8 %
Extraction speed 0.8 X
Track quality 99.9 %
Test CRC 01CBDF94
Copy CRC 01CBDF94
Accurately ripped (confidence 7) [537A0BEB] (AR v2)
Copy OK

Track 2

Filename C:\rip\John Eliot Gardiner, Monteverdi Choir - Johann Sebastian Bach - St Matthew Passion (2017) {SDG 725} [FLAC-CD]\CD2\02 - Erbarme dich, mein Gott.wav

Peak level 27.1 %
Extraction speed 1.1 X
Track quality 100.0 %
Test CRC D91A8D15
Copy CRC D91A8D15
Accurately ripped (confidence 7) [FBCB3ACD] (AR v2)
Copy OK

Track 3

Filename C:\rip\John Eliot Gardiner, Monteverdi Choir - Johann Sebastian Bach - St Matthew Passion (2017) {SDG 725} [FLAC-CD]\CD2\03 - Bin ich gleich von dir gewichen.wav

Peak level 55.3 %
Extraction speed 0.5 X
Track quality 99.8 %
Test CRC A09D7F8B
Copy CRC A09D7F8B
Accurately ripped (confidence 7) [5A28BE1C] (AR v2)
Copy OK

Track 4

Filename C:\rip\John Eliot Gardiner, Monteverdi Choir - Johann Sebastian Bach - St Matthew Passion (2017) {SDG 725} [FLAC-CD]\CD2\04 - Des Morgens aber hielten.wav

Peak level 49.8 %
Extraction speed 0.8 X
Track quality 100.0 %
Test CRC 8D88B7D2
Copy CRC 8D88B7D2
Accurately ripped (confidence 7) [08CBA76B] (AR v2)
Copy OK

Track 5

Filename C:\rip\John Eliot Gardiner, Monteverdi Choir - Johann Sebastian Bach - St Matthew Passion (2017) {SDG 725} [FLAC-CD]\CD2\05 - Gebt mir meinen Jesum wieder!.wav

Peak level 36.8 %
Extraction speed 0.9 X
Track quality 100.0 %
Test CRC 383AEF14
Copy CRC 383AEF14
Accurately ripped (confidence 7) [9C1A96C5] (AR v2)
Copy OK

Track 6

Filename C:\rip\John Eliot Gardiner, Monteverdi Choir - Johann Sebastian Bach - St Matthew Passion (2017) {SDG 725} [FLAC-CD]\CD2\06 - Sie hielten aber einen Rat.wav

Peak level 34.3 %
Extraction speed 0.7 X
Track quality 99.9 %
Test CRC DD8CB22D
Copy CRC DD8CB22D
Accurately ripped (confidence 7) [7947A346] (AR v2)
Copy OK

Track 7

Filename C:\rip\John Eliot Gardiner, Monteverdi Choir - Johann Sebastian Bach - St Matthew Passion (2017) {SDG 725} [FLAC-CD]\CD2\07 - Befiehl du deine Wege.wav

Peak level 21.0 %
Extraction speed 0.8 X
Track quality 100.0 %
Test CRC E444D624
Copy CRC E444D624
Accurately ripped (confidence 7) [BD32527B] (AR v2)
Copy OK

Track 8

Filename C:\rip\John Eliot Gardiner, Monteverdi Choir - Johann Sebastian Bach - St Matthew Passion (2017) {SDG 725} [FLAC-CD]\CD2\08 - Auf das Fest aber hatte.wav

Peak level 80.3 %
Extraction speed 1.1 X
Track quality 100.0 %
Test CRC 56B481CB
Copy CRC 56B481CB
Accurately ripped (confidence 7) [5F408536] (AR v2)
Copy OK

Track 9

Filename C:\rip\John Eliot Gardiner, Monteverdi Choir - Johann Sebastian Bach - St Matthew Passion (2017) {SDG 725} [FLAC-CD]\CD2\09 - Wie wunderbarlich.wav

Peak level 40.4 %
Extraction speed 0.6 X
Track quality 100.0 %
Test CRC 9FC02E47
Copy CRC 9FC02E47
Accurately ripped (confidence 7) [9A4ACD0F] (AR v2)
Copy OK

Track 10

Filename C:\rip\John Eliot Gardiner, Monteverdi Choir - Johann Sebastian Bach - St Matthew Passion (2017) {SDG 725} [FLAC-CD]\CD2\10 - Der Landpfleger sagte.wav

Peak level 9.0 %
Extraction speed 0.3 X
Track quality 100.0 %
Test CRC AB101DA0
Copy CRC AB101DA0
Accurately ripped (confidence 7) [3F8729AE] (AR v2)
Copy OK

Track 11

Filename C:\rip\John Eliot Gardiner, Monteverdi Choir - Johann Sebastian Bach - St Matthew Passion (2017) {SDG 725} [FLAC-CD]\CD2\11 - Er hat uns allen wohlgetan.wav

Peak level 54.2 %
Extraction speed 0.8 X
Track quality 100.0 %
Test CRC FFB5C418
Copy CRC FFB5C418
Accurately ripped (confidence 7) [E3E5CB9E] (AR v2)
Copy OK

Track 12

Filename C:\rip\John Eliot Gardiner, Monteverdi Choir - Johann Sebastian Bach - St Matthew Passion (2017) {SDG 725} [FLAC-CD]\CD2\12 - Aus Liebe will mein Heiland sterben.wav

Peak level 35.2 %
Extraction speed 1.4 X
Track quality 99.9 %
Test CRC D6B511EF
Copy CRC D6B511EF
Accurately ripped (confidence 7) [DA3631D0] (AR v2)
Copy OK

Track 13

Filename C:\rip\John Eliot Gardiner, Monteverdi Choir - Johann Sebastian Bach - St Matthew Passion (2017) {SDG 725} [FLAC-CD]\CD2\13 - Sie schrieen aber noch mehr.wav

Peak level 83.2 %
Extraction speed 1.1 X
Track quality 100.0 %
Test CRC CF39964A
Copy CRC CF39964A
Accurately ripped (confidence 7) [EAB18262] (AR v2)
Copy OK

Track 14

Filename C:\rip\John Eliot Gardiner, Monteverdi Choir - Johann Sebastian Bach - St Matthew Passion (2017) {SDG 725} [FLAC-CD]\CD2\14 - Erbarm es Gott!.wav

Peak level 42.7 %
Extraction speed 1.2 X
Track quality 100.0 %
Test CRC 003FBE3C
Copy CRC 003FBE3C
Accurately ripped (confidence 7) [55A7A368] (AR v2)
Copy OK

Track 15

Filename C:\rip\John Eliot Gardiner, Monteverdi Choir - Johann Sebastian Bach - St Matthew Passion (2017) {SDG 725} [FLAC-CD]\CD2\15 - Konnen Tranen meiner Wangen.wav

Peak level 29.5 %
Extraction speed 2.4 X
Track quality 100.0 %
Test CRC 56E82B5B
Copy CRC 56E82B5B
Accurately ripped (confidence 7) [BC40BFEB] (AR v2)
Copy OK

Track 16

Filename C:\rip\John Eliot Gardiner, Monteverdi Choir - Johann Sebastian Bach - St Matthew Passion (2017) {SDG 725} [FLAC-CD]\CD2\16 - Da nahmen die Kriegsknechte.wav

Peak level 56.1 %
Extraction speed 0.9 X
Track quality 100.0 %
Test CRC 6D179724
Copy CRC 6D179724
Accurately ripped (confidence 7) [75B04585] (AR v2)
Copy OK

Track 17

Filename C:\rip\John Eliot Gardiner, Monteverdi Choir - Johann Sebastian Bach - St Matthew Passion (2017) {SDG 725} [FLAC-CD]\CD2\17 - O Haupt voll Blut und Wunden.wav

Peak level 68.9 %
Extraction speed 0.9 X
Track quality 100.0 %
Test CRC 73F829DC
Copy CRC 73F829DC
Accurately ripped (confidence 7) [6D3C6F5A] (AR v2)
Copy OK

Track 18

Filename C:\rip\John Eliot Gardiner, Monteverdi Choir - Johann Sebastian Bach - St Matthew Passion (2017) {SDG 725} [FLAC-CD]\CD2\18 - Und da sie ihn verspottet hatten.wav

Peak level 21.4 %
Extraction speed 0.9 X
Track quality 100.0 %
Test CRC E75321EB
Copy CRC E75321EB
Accurately ripped (confidence 7) [61762F22] (AR v2)
Copy OK

Track 19

Filename C:\rip\John Eliot Gardiner, Monteverdi Choir - Johann Sebastian Bach - St Matthew Passion (2017) {SDG 725} [FLAC-CD]\CD2\19 - Ja, freilich.wav

Peak level 23.8 %
Extraction speed 0.6 X
Track quality 100.0 %
Test CRC D7062ECA
Copy CRC D7062ECA
Accurately ripped (confidence 7) [7B49B9F3] (AR v2)
Copy OK

Track 20

Filename C:\rip\John Eliot Gardiner, Monteverdi Choir - Johann Sebastian Bach - St Matthew Passion (2017) {SDG 725} [FLAC-CD]\CD2\20 - Komm, susses Kreuz.wav

Peak level 24.3 %
Extraction speed 1.9 X
Track quality 100.0 %
Test CRC DAF20A77
Copy CRC DAF20A77
Accurately ripped (confidence 7) [5AD5B251] (AR v2)
Copy OK

Track 21

Filename C:\rip\John Eliot Gardiner, Monteverdi Choir - Johann Sebastian Bach - St Matthew Passion (2017) {SDG 725} [FLAC-CD]\CD2\21 - Und da sie an die Statte kamen.wav

Peak level 77.2 %
Extraction speed 1.6 X
Track quality 100.0 %
Test CRC D1BA49BF
Copy CRC D1BA49BF
Accurately ripped (confidence 7) [5F7B2410] (AR v2)
Copy OK

Track 22

Filename C:\rip\John Eliot Gardiner, Monteverdi Choir - Johann Sebastian Bach - St Matthew Passion (2017) {SDG 725} [FLAC-CD]\CD2\22 - Ach, Golgatha.wav

Peak level 30.5 %
Extraction speed 1.6 X
Track quality 100.0 %
Test CRC 632B8A63
Copy CRC 632B8A63
Accurately ripped (confidence 7) [2579D84C] (AR v2)
Copy OK

Track 23

Filename C:\rip\John Eliot Gardiner, Monteverdi Choir - Johann Sebastian Bach - St Matthew Passion (2017) {SDG 725} [FLAC-CD]\CD2\23 - Sehet, Jesus hat die Hand.wav

Peak level 25.4 %
Extraction speed 4.6 X
Track quality 100.0 %
Test CRC 5F177E1B
Copy CRC 5F177E1B
Accurately ripped (confidence 7) [217C4CCA] (AR v2)
Copy OK

Track 24

Filename C:\rip\John Eliot Gardiner, Monteverdi Choir - Johann Sebastian Bach - St Matthew Passion (2017) {SDG 725} [FLAC-CD]\CD2\24 - Und von der sechsten Stunde.wav

Peak level 47.8 %
Extraction speed 4.5 X
Track quality 100.0 %
Test CRC 51BCF53F
Copy CRC 51BCF53F
Accurately ripped (confidence 7) [36B7236E] (AR v2)
Copy OK

Track 25

Filename C:\rip\John Eliot Gardiner, Monteverdi Choir - Johann Sebastian Bach - St Matthew Passion (2017) {SDG 725} [FLAC-CD]\CD2\25 - Wenn ich einmal soll scheiden.wav

Peak level 7.4 %
Extraction speed 1.8 X
Track quality 100.0 %
Test CRC 6C84BF80
Copy CRC 6C84BF80
Accurately ripped (confidence 7) [EABF84E1] (AR v2)
Copy OK

Track 26

Filename C:\rip\John Eliot Gardiner, Monteverdi Choir - Johann Sebastian Bach - St Matthew Passion (2017) {SDG 725} [FLAC-CD]\CD2\26 - Und siehe da.wav

Peak level 67.6 %
Extraction speed 4.7 X
Track quality 100.0 %
Test CRC 51338BF9
Copy CRC 51338BF9
Accurately ripped (confidence 7) [8E926B7A] (AR v2)
Copy OK

Track 27

Filename C:\rip\John Eliot Gardiner, Monteverdi Choir - Johann Sebastian Bach - St Matthew Passion (2017) {SDG 725} [FLAC-CD]\CD2\27 - Am Abend da es kuhle war.wav

Peak level 24.3 %
Extraction speed 2.7 X
Track quality 100.0 %
Test CRC A8B0C8EC
Copy CRC A8B0C8EC
Accurately ripped (confidence 7) [58CE31F0] (AR v2)
Copy OK

Track 28

Filename C:\rip\John Eliot Gardiner, Monteverdi Choir - Johann Sebastian Bach - St Matthew Passion (2017) {SDG 725} [FLAC-CD]\CD2\28 - Mache dich, mein Herze, rein.wav

Peak level 25.8 %
Extraction speed 5.5 X
Track quality 100.0 %
Test CRC 6A256D61
Copy CRC 6A256D61
Accurately ripped (confidence 7) [5219BDDD] (AR v2)
Copy OK

Track 29

Filename C:\rip\John Eliot Gardiner, Monteverdi Choir - Johann Sebastian Bach - St Matthew Passion (2017) {SDG 725} [FLAC-CD]\CD2\29 - Und Joseph nahm den Leib.wav

Peak level 78.3 %
Extraction speed 4.1 X
Track quality 99.9 %
Test CRC B6E8509A
Copy CRC B6E8509A
Accurately ripped (confidence 7) [A518BEF2] (AR v2)
Copy OK

Track 30

Filename C:\rip\John Eliot Gardiner, Monteverdi Choir - Johann Sebastian Bach - St Matthew Passion (2017) {SDG 725} [FLAC-CD]\CD2\30 - Nun ist der Herr zur Ruh gebracht.wav

Peak level 36.2 %
Extraction speed 2.2 X
Track quality 100.0 %
Test CRC 59903F35
Copy CRC 59903F35
Accurately ripped (confidence 7) [24449729] (AR v2)
Copy OK

Track 31

Filename C:\rip\John Eliot Gardiner, Monteverdi Choir - Johann Sebastian Bach - St Matthew Passion (2017) {SDG 725} [FLAC-CD]\CD2\31 - Wir setzen uns mit Tranen nieder.wav

Peak level 70.0 %
Extraction speed 2.2 X
Track quality 99.9 %
Test CRC 95DC3FC8
Copy CRC 95DC3FC8
Accurately ripped (confidence 7) [8F834689] (AR v2)
Copy OK


All tracks accurately ripped

No errors occurred

End of status report

–– CUETools DB Plugin V2.1.6

[CTDB TOCID: dNpxGktMKckSh_JMRFgX3c5sEic-] found
Submit result: The operation has timed out
Track | CTDB Status
1 | (20/20) Accurately ripped
2 | (20/20) Accurately ripped
3 | (20/20) Accurately ripped
4 | (20/20) Accurately ripped
5 | (20/20) Accurately ripped
6 | (20/20) Accurately ripped
7 | (20/20) Accurately ripped
8 | (20/20) Accurately ripped
9 | (20/20) Accurately ripped
10 | (20/20) Accurately ripped
11 | (20/20) Accurately ripped
12 | (20/20) Accurately ripped
13 | (20/20) Accurately ripped
14 | (20/20) Accurately ripped
15 | (20/20) Accurately ripped
16 | (20/20) Accurately ripped
17 | (20/20) Accurately ripped
18 | (20/20) Accurately ripped
19 | (20/20) Accurately ripped
20 | (20/20) Accurately ripped
21 | (20/20) Accurately ripped
22 | (20/20) Accurately ripped
23 | (20/20) Accurately ripped
24 | (20/20) Accurately ripped
25 | (20/20) Accurately ripped
26 | (20/20) Accurately ripped
27 | (20/20) Accurately ripped
28 | (20/20) Accurately ripped
29 | (20/20) Accurately ripped
30 | (20/20) Accurately ripped
31 | (20/20) Accurately ripped


==== Log checksum 77BF20021380EE3075028770926C94F6CC33D0505AF7E5AFD6F1A399AD8A7F2F ====


John Eliot Gardiner - Bach: St Matthew Passion BWV 244 (2017)


Thanks to the Original customer.