Subcategories

John Abercrombie Quartet - Up and Coming (2017) {ECM 2528}

Posted By: tiburon
John Abercrombie Quartet - Up and Coming (2017) {ECM 2528}

John Abercrombie Quartet - Up and Coming (2017) {ECM 2528}
EAC 1.0b3 | FLAC tracks level 8 | Cue+Log+M3U | Full Scans 600dpi | 386MB + 5% Recovery
Genre: Jazz, Fusion, Post-Bop

John Abercrombie Quartet: Up and Coming Starting the new year with, if not precisely a bang, a nevertheless unforgettable record whose strength lies in pristine lyricism, nuanced group interplay and writing that capitalizes on the entire quartet's appreciation of subtlety over gymnastics and refined lyricism over angularity, John Abercrombie's Up and Coming—ECM's first release of the year—is also founded strongly on the concept of relationship.
Track List
01. Joy 4:12
02. Flipside 2:53
03. Sunday School 7:18
04. Up And Coming 5:51
05. Tears 7:35
06. Silver Circle 7:06
07. Nardis 6:22
08. Jumbles 5:58

musicians
John Abercrombie - guitar
Marc Copland - piano
Joey Baron - drums
Drew Gress - double bass

Produced by Manfred Eicher


Exact Audio Copy V1.0 beta 3 from 29. August 2011

EAC extraction logfile from 20. January 2017, 20:50

John Abercrombie Quartet / Up and Coming [ECM 2528]

Used drive : ASUS DRW-24F1ST a Adapter: 0 ID: 0

Read mode : Secure
Utilize accurate stream : Yes
Defeat audio cache : Yes
Make use of C2 pointers : No

Read offset correction : 6
Overread into Lead-In and Lead-Out : No
Fill up missing offset samples with silence : Yes
Delete leading and trailing silent blocks : No
Null samples used in CRC calculations : Yes
Used interface : Native Win32 interface for Win NT & 2000
Gap handling : Appended to previous track

Used output format : User Defined Encoder
Selected bitrate : 128 kBit/s
Quality : High
Add ID3 tag : No
Command line compressor : C:\Program Files (x86)\Exact Audio Copy\FLAC\FLAC.EXE
Additional command line options : -8 -V -T "ARTIST=%artist%" -T "TITLE=%title%" -T "ALBUM=%albumtitle%" -T "DATE=%year%" -T "TRACKNUMBER=%tracknr%" -T "TOTALTRACKS=%numtracks%" -T "GENRE=%genre%" -T "ALBUMARTIST=%albumartist%" -T "ALBUM ARTIST=%albumartist%" -T "COMMENT=EAC Secure Mode, Test & Copy, AccurateRip, FLAC -8" %source%


TOC of the extracted CD

Track | Start | Length | Start sector | End sector
––––––––––––––––––––––––––––-
1 | 0:00.00 | 4:12.04 | 0 | 18903
2 | 4:12.04 | 2:53.16 | 18904 | 31894
3 | 7:05.20 | 7:18.12 | 31895 | 64756
4 | 14:23.32 | 5:50.74 | 64757 | 91080
5 | 20:14.31 | 7:34.61 | 91081 | 125191
6 | 27:49.17 | 7:06.21 | 125192 | 157162
7 | 34:55.38 | 6:21.45 | 157163 | 185782
8 | 41:17.08 | 5:57.63 | 185783 | 212620


Track 1

Filename K:\EAC\01 - Joy.wav

Pre-gap length 0:00:02.00

Peak level 48.8 %
Extraction speed 1.8 X
Track quality 100.0 %
Test CRC C89F7949
Copy CRC C89F7949
Track not present in AccurateRip database
Copy OK

Track 2

Filename K:\EAC\02 - Flipside.wav

Pre-gap length 0:00:03.00

Peak level 75.8 %
Extraction speed 1.8 X
Track quality 100.0 %
Test CRC 5A78FF84
Copy CRC 5A78FF84
Track not present in AccurateRip database
Copy OK

Track 3

Filename K:\EAC\03 - Sunday School.wav

Pre-gap length 0:00:02.39

Peak level 72.3 %
Extraction speed 2.3 X
Track quality 100.0 %
Test CRC 6DB4B05D
Copy CRC 6DB4B05D
Track not present in AccurateRip database
Copy OK

Track 4

Filename K:\EAC\04 - Up and Coming.wav

Pre-gap length 0:00:03.03

Peak level 91.9 %
Extraction speed 2.5 X
Track quality 100.0 %
Test CRC B1FC56FE
Copy CRC B1FC56FE
Track not present in AccurateRip database
Copy OK

Track 5

Filename K:\EAC\05 - Tears.wav

Pre-gap length 0:00:03.47

Peak level 92.2 %
Extraction speed 2.6 X
Track quality 99.9 %
Test CRC 4F1A1610
Copy CRC 4F1A1610
Track not present in AccurateRip database
Copy OK

Track 6

Filename K:\EAC\06 - Silver Circle.wav

Pre-gap length 0:00:00.46

Peak level 100.0 %
Extraction speed 2.8 X
Track quality 99.9 %
Test CRC 26D9EE74
Copy CRC 26D9EE74
Track not present in AccurateRip database
Copy OK

Track 7

Filename K:\EAC\07 - Nardis.wav

Pre-gap length 0:00:01.57

Peak level 97.4 %
Extraction speed 3.2 X
Track quality 100.0 %
Test CRC FC97C0A0
Copy CRC FC97C0A0
Track not present in AccurateRip database
Copy OK

Track 8

Filename K:\EAC\08 - Jumbles.wav

Pre-gap length 0:00:04.40

Peak level 92.6 %
Extraction speed 3.3 X
Track quality 100.0 %
Test CRC ED3EA534
Copy CRC ED3EA534
Track not present in AccurateRip database
Copy OK


None of the tracks are present in the AccurateRip database

No errors occurred

End of status report

==== Log checksum 76F6BB20633EB810DEEE36D02E42AA56D8367D3AA45F0C14B7CF7678AB202EF9 ====


––––––––––––––––––––––––––––––––––––––––
Analyzed: John Abercrombie Quartet / Up and Coming [ECM 2528]
––––––––––––––––––––––––––––––––––––––––

DR Peak RMS Duration Track
––––––––––––––––––––––––––––––––––––––––
DR13 -6.22 dB -24.61 dB 4:12 01-Joy
DR13 -2.40 dB -18.75 dB 2:53 02-Flipside
DR14 -2.82 dB -20.33 dB 7:18 03-Sunday School
DR13 -0.73 dB -17.42 dB 5:51 04-Up and Coming
DR15 -0.70 dB -21.47 dB 7:35 05-Tears
DR14 0.00 dB -18.44 dB 7:06 06-Silver Circle
DR14 -0.22 dB -18.83 dB 6:22 07-Nardis
DR13 -0.66 dB -17.75 dB 5:58 08-Jumbles
––––––––––––––––––––––––––––––––––––––––

Number of tracks: 8
Official DR value: DR14

Samplerate: 44100 Hz
Channels: 2
Bits per sample: 16
Bitrate: 704 kbps
Codec: FLAC
================================================================================

John Abercrombie Quartet - Up and Coming (2017) {ECM 2528}
John Abercrombie Quartet - Up and Coming (2017) {ECM 2528}
John Abercrombie Quartet - Up and Coming (2017) {ECM 2528}


Thanks to the original ripper