Subcategories

John Abercrombie - Upon A Time (1989) {New Albion}

Posted By: tiburon
John Abercrombie - Upon A Time (1989) {New Albion}

John Abercrombie - Upon A Time (1989) {New Albion}
EAC 0.95b4 | FLAC Image level 8 | Cue+Log | Full Scans 300dpi | 328MB + 5% Recovery
MP3 CBR 320 Kbps | 170MB + 5% Recovery
Genre: Fusion, Post-Bop

John Abercrombie's 1989 release UPON A TIME is, as the subtitle points out, an album of duets, mostly with bassist Mel Graves and drummer George Marsh. While bass and drum solos are often the punchlines of musical jokes, Graves and Marsh are skilled players with enough good taste to keep the flashiness to an interesting minimum. As for guitarist Abercrombie, his playing is typically brilliant, whether picking out the traditional melody of "My Scottish Heart" or moving into a more impressionistic sonic arena in tracks like "In the Woods" or "Chuck Man Rivers." Earthier and more expressly jazz-based than many releases on the ECM-affiliated New Albion label, UPON A TIME is a satisfying, richly rewarding album.
Track List
John Abercrombie & George Marsh
01. My Scottish Heart (5:30)
02. Muchacha Dorada (5:37)
03. Upon A Time (3:10)
04. In The Woods (6:10)
05. Demi-Saison (3:38)
06. Baby Lucille (5:56)
07. Vincent (8:23)
08. Count (2:53)
09. Chuck Man Rivers (2:39)
10. Camel Walk (4:21)
George Marsh & Mel Graves
11. Play It Again (2:50)
12. Moonfire (2:30)
13. Gypsy Wand Song (5:56)
14. McNabb The Crabb (2:19)
15. Chelsea Bridge (5:48)
16. Lullaby Of The Leaves (2:34)

musicians
John Abercrombie - Mandolin, Mando-Guitar, Electric Guitar, Piano (1-10)
George Marsh - Percussion, Thumb Piano, Drums
Mel Graves - Electric and Acoustic Bass (11-16)

Produced by John Abercrombie and George Marsh


Отчёт EAC об извлечении, выполненном 14. сентября 2008, 23:01 для диска:
John Abercrombie / Upon a Time

Дисковод: HP CD-Writer+ 8200a Adapter: 0 ID: 1
Режим чтения: Достоверный (C2: нет, Точный поток: да, Отключение кэша: да)
Коррекция смещения при чтении: 572
Способность читать области Lead-in и Lead-out : Нет

Выходной формат: Внутренние WAV-операции
44.100 Гц; 16 бит; стерео

Другие параметры:
Заполнение пропущенных сэмплов тишиной : Да
Удаление блоков с тишиной в начале и конце : Нет
Установленный внешний ASPI-интерфейс


Характеристики диапазона извлечения и сообщения об ошибках
Выбранный диапазон
Имя файла D:\Music\rapid\John Abercrombie - Upon A Time\John Abercrombie - Upon a Time.wav

Пиковый уровень 91.3 %
Качество диапазона 99.9 %
CRC 4DB0F011
Копирование… OK

Ошибок не произошло

Конец отчёта


foobar2000 1.3.13 / Dynamic Range Meter 1.1.1
log date: 2017-11-28 22:46:13

––––––––––––––––––––––––––––––––––––––––
Analyzed: John Abercrombie / Upon a Time
––––––––––––––––––––––––––––––––––––––––

DR Peak RMS Duration Track
––––––––––––––––––––––––––––––––––––––––
DR13 -5.46 dB -23.74 dB 5:30 01-My Scottish Heart
DR15 -0.79 dB -19.29 dB 5:37 02-Muchacha Dorada
DR12 -6.72 dB -21.20 dB 3:10 03-Upon a Time
DR13 -3.59 dB -20.85 dB 6:11 04-In the Woods
DR12 -7.22 dB -23.79 dB 3:38 05-Demi-saison
DR15 -3.06 dB -23.93 dB 5:56 06-Baby Lucille
DR17 -3.19 dB -25.11 dB 8:24 07-Vincent
DR15 -2.51 dB -23.15 dB 2:53 08-Count
DR16 -5.93 dB -28.87 dB 2:40 09-Chuck Man Rivers
DR15 -4.11 dB -24.60 dB 4:21 10-Camel Walk
DR19 -2.31 dB -24.89 dB 2:51 11-Play it Again
DR12 -9.86 dB -28.92 dB 2:31 12-Moonfire
DR13 -7.13 dB -25.02 dB 5:57 13-Gypsy Wand Song
DR17 -4.65 dB -27.54 dB 2:19 14-McNabb the Crab
DR19 -3.60 dB -27.93 dB 5:48 15-Chelsea Bridge
DR17 -4.56 dB -25.29 dB 2:35 16-Lullaby of the Leaves
––––––––––––––––––––––––––––––––––––––––

Number of tracks: 16
Official DR value: DR15

Samplerate: 44100 Hz
Channels: 2
Bits per sample: 16
Bitrate: 635 kbps
Codec: FLAC
================================================================================

John Abercrombie - Upon A Time (1989) {New Albion}
John Abercrombie - Upon A Time (1989) {New Albion}
John Abercrombie - Upon A Time (1989) {New Albion}


Thanks to the original ripper