Subcategories

John Cage - As It Is (2012) {ECM 2268}

Posted By: tiburon
John Cage - As It Is (2012) {ECM 2268}

John Cage - As It Is (2012) {ECM 2268}
EAC 1.0b3 | FLAC tracks level 8 | Cue+Log+M3U | Full Scans 300dpi | 166MB + 5% Recovery
Genre: Classical, Contemporary

A fresh approach to one of contemporary composition’s most iconoclastic and inventive figures, issued on the occasion of John Cage’s 100th birthday. Early Cage is the subject here, strikingly original songs and piano pieces from the 1930s and 1940s. Songs in which Cage sets words by writers whose vision was as independent as his own – James Joyce, Gertrude Stein, E. E. Cummings. As Paul Griffiths writes, “The music exists in singing that has a raw, living edge, and it exists in piano tone that can be utterly simple and utterly remarkable. There is also a third presence that of the producer, bringing forward the extraordinary resonances that come from Lubimov’s piano, with preparation or without.”
Track List
01. Dream 8:28
02. The Wonderful Widow Of Eighteen Springs 3:02
03. The Unavailable Memory Of 3:29
04. A Flower 3:31
05. Music For Marcel Duchamp 6:20
06. Experiences No. 2 3:33
07. A Room 2:11
08. I. Twenty Years After 0:30
09. II. Is It As It Was 0:55
10. III. At East And Ingredients 1:23
11. Two Pieces For Piano 5:03
12. Two Pieces For Piano II 5:19
13. 1. Little Four Paws 1:42
14. 2. Little Christmas Tree 3:37
15. 3. In Just- 1:11
16. 4. Hist Whist 0:59
17. 5. Tumbling Hair 1:06
18. Prelude For Meditation 1:25
19. She Is Asleep 7:49
20. Nowth Upon Nacht 1:22
21. Dream, var. 8:25

musicians
Alexei Lubimov - piano, prepared piano
Natalia Pschenitschnikova - voice

Produced by Manfred Eicher


Exact Audio Copy V1.0 beta 3 from 29. August 2011

EAC extraction logfile from 21. September 2012, 10:55

John Cage / As It Is

Used drive : TSSTcorpCDDVDW TS-H653N Adapter: 0 ID: 1

Read mode : Secure
Utilize accurate stream : Yes
Defeat audio cache : Yes
Make use of C2 pointers : No

Read offset correction : 6
Overread into Lead-In and Lead-Out : No
Fill up missing offset samples with silence : Yes
Delete leading and trailing silent blocks : No
Null samples used in CRC calculations : Yes
Used interface : Native Win32 interface for Win NT & 2000
Gap handling : Appended to previous track

Used output format : User Defined Encoder
Selected bitrate : 768 kBit/s
Quality : High
Add ID3 tag : No
Command line compressor : C:\Program Files\Exact Audio Copy\Flac\flac.exe
Additional command line options : -8 -V -T "ARTIST=%artist%" -T "TITLE=%title%" -T "ALBUM=%albumtitle%" -T "DATE=%year%" -T "TRACKNUMBER=%tracknr%" -T "TOTALTRACKS=%numtracks%" -T "GENRE=%genre%" -T "ALBUMARTIST=%albumartist%" -T "ALBUM ARTIST=%albumartist%" -T "COMMENT=EAC Secure Mode, Test & Copy, AccurateRip, FLAC -8" %source%


TOC of the extracted CD

Track | Start | Length | Start sector | End sector
––––––––––––––––––––––––––––-
1 | 0:00.00 | 8:28.53 | 0 | 38152
2 | 8:28.53 | 3:02.28 | 38153 | 51830
3 | 11:31.06 | 3:29.32 | 51831 | 67537
4 | 15:00.38 | 3:31.30 | 67538 | 83392
5 | 18:31.68 | 6:20.09 | 83393 | 111901
6 | 24:52.02 | 3:33.65 | 111902 | 127941
7 | 28:25.67 | 2:11.53 | 127942 | 137819
8 | 30:37.45 | 0:30.22 | 137820 | 140091
9 | 31:07.67 | 0:56.29 | 140092 | 144320
10 | 32:04.21 | 1:23.10 | 144321 | 150555
11 | 33:27.31 | 5:03.08 | 150556 | 173288
12 | 38:30.39 | 5:19.63 | 173289 | 197276
13 | 43:50.27 | 1:42.41 | 197277 | 204967
14 | 45:32.68 | 3:37.46 | 204968 | 221288
15 | 49:10.39 | 1:11.07 | 221289 | 226620
16 | 50:21.46 | 0:59.42 | 226621 | 231087
17 | 51:21.13 | 1:06.14 | 231088 | 236051
18 | 52:27.27 | 1:26.21 | 236052 | 242522
19 | 53:53.48 | 7:49.20 | 242523 | 277717
20 | 61:42.68 | 1:22.53 | 277718 | 283920
21 | 63:05.46 | 8:25.31 | 283921 | 321826


Track 1

Filename I:\MYEAC\01 Dream.wav

Pre-gap length 0:00:02.00

Peak level 20.1 %
Extraction speed 5.6 X
Track quality 100.0 %
Test CRC FE15291E
Copy CRC FE15291E
Track not present in AccurateRip database
Copy OK

Track 2

Filename I:\MYEAC\02 The Wonderful Widow of Eighteen Springs.wav

Peak level 13.7 %
Extraction speed 5.6 X
Track quality 100.0 %
Test CRC 26BCBEFD
Copy CRC 26BCBEFD
Track not present in AccurateRip database
Copy OK

Track 3

Filename I:\MYEAC\03 The Unavailable Memory of.wav

Peak level 44.5 %
Extraction speed 6.0 X
Track quality 100.0 %
Test CRC DFA72F24
Copy CRC DFA72F24
Track not present in AccurateRip database
Copy OK

Track 4

Filename I:\MYEAC\04 A Flower.wav

Peak level 16.4 %
Extraction speed 6.3 X
Track quality 100.0 %
Test CRC B8243DA3
Copy CRC B8243DA3
Track not present in AccurateRip database
Copy OK

Track 5

Filename I:\MYEAC\05 Music for Marcel Duchamp.wav

Peak level 31.8 %
Extraction speed 6.1 X
Track quality 99.9 %
Test CRC 7A789749
Copy CRC 7A789749
Track not present in AccurateRip database
Copy OK

Track 6

Filename I:\MYEAC\06 Experiences No. 2.wav

Peak level 8.4 %
Extraction speed 7.0 X
Track quality 100.0 %
Test CRC 253A3558
Copy CRC 253A3558
Track not present in AccurateRip database
Copy OK

Track 7

Filename I:\MYEAC\07 A Room.wav

Peak level 16.6 %
Extraction speed 6.7 X
Track quality 100.0 %
Test CRC BB340311
Copy CRC BB340311
Track not present in AccurateRip database
Copy OK

Track 8

Filename I:\MYEAC\08 Three Songs I. Twenty years after.wav

Peak level 21.3 %
Extraction speed 3.8 X
Track quality 100.0 %
Test CRC BDF569A3
Copy CRC BDF569A3
Track not present in AccurateRip database
Copy OK

Track 9

Filename I:\MYEAC\09 Three Songs II. Is it as it was.wav

Peak level 59.8 %
Extraction speed 5.1 X
Track quality 100.0 %
Test CRC 58DE3C06
Copy CRC 58DE3C06
Track not present in AccurateRip database
Copy OK

Track 10

Filename I:\MYEAC\10 Three Songs III. At East and ingredients.wav

Peak level 35.3 %
Extraction speed 6.0 X
Track quality 100.0 %
Test CRC 64EFAAB7
Copy CRC 64EFAAB7
Track not present in AccurateRip database
Copy OK

Track 11

Filename I:\MYEAC\11 Two Pieces for Piano I.wav

Peak level 31.5 %
Extraction speed 6.7 X
Track quality 99.9 %
Test CRC E46886E2
Copy CRC E46886E2
Track not present in AccurateRip database
Copy OK

Track 12

Filename I:\MYEAC\12 Two Pieces for Piano II.wav

Peak level 65.4 %
Extraction speed 8.4 X
Track quality 100.0 %
Test CRC F9800D07
Copy CRC F9800D07
Track not present in AccurateRip database
Copy OK

Track 13

Filename I:\MYEAC\13 Five Songs 1. little four paws.wav

Peak level 20.2 %
Extraction speed 4.5 X
Track quality 99.8 %
Test CRC C93C63AC
Copy CRC C93C63AC
Track not present in AccurateRip database
Copy OK

Track 14

Filename I:\MYEAC\14 Five Songs 2. little Christmas tree.wav

Peak level 46.6 %
Extraction speed 8.3 X
Track quality 100.0 %
Test CRC E2C82B24
Copy CRC E2C82B24
Track not present in AccurateRip database
Copy OK

Track 15

Filename I:\MYEAC\15 Five Songs 3. in Just-.wav

Peak level 36.7 %
Extraction speed 6.5 X
Track quality 100.0 %
Test CRC BA6BCD04
Copy CRC BA6BCD04
Track not present in AccurateRip database
Copy OK

Track 16

Filename I:\MYEAC\16 Five Songs 4. hist whist.wav

Peak level 82.3 %
Extraction speed 6.2 X
Track quality 100.0 %
Test CRC A02790F9
Copy CRC A02790F9
Track not present in AccurateRip database
Copy OK

Track 17

Filename I:\MYEAC\17 Five Songs 5. Tumbling hair.wav

Peak level 23.4 %
Extraction speed 6.5 X
Track quality 100.0 %
Test CRC E5B8B7E7
Copy CRC E5B8B7E7
Track not present in AccurateRip database
Copy OK

Track 18

Filename I:\MYEAC\18 Prelude for Meditation.wav

Peak level 13.8 %
Extraction speed 7.1 X
Track quality 100.0 %
Test CRC C14BF37F
Copy CRC C14BF37F
Track not present in AccurateRip database
Copy OK

Track 19

Filename I:\MYEAC\19 She is Asleep.wav

Peak level 38.2 %
Extraction speed 9.8 X
Track quality 100.0 %
Test CRC 4DD594E8
Copy CRC 4DD594E8
Track not present in AccurateRip database
Copy OK

Track 20

Filename I:\MYEAC\20 Nowth upon nacht.wav

Peak level 99.8 %
Extraction speed 7.4 X
Track quality 100.0 %
Test CRC 315364BC
Copy CRC 315364BC
Track not present in AccurateRip database
Copy OK

Track 21

Filename I:\MYEAC\21 Dream var..wav

Peak level 21.1 %
Extraction speed 10.4 X
Track quality 100.0 %
Test CRC 2C61AD40
Copy CRC 2C61AD40
Track not present in AccurateRip database
Copy OK


None of the tracks are present in the AccurateRip database

No errors occurred

End of status report

==== Log checksum 8293CF7BE7105C8A302AA5F01DE936BEBAAADA35559F756B6C6D2CF83FB5F074 ====


––––––––––––––––––––––––––––––––––––––––
Analyzed: John Cage / As It Is
––––––––––––––––––––––––––––––––––––––––

DR Peak RMS Duration Track
––––––––––––––––––––––––––––––––––––––––
DR15 -13.93 dB -33.45 dB 8:29 01-Dream
DR13 -17.25 dB -35.81 dB 3:02 02-The Wonderful Widow of Eighteen Springs
DR13 -7.02 dB -24.48 dB 3:29 03-The Unavailable Memory of
DR15 -15.69 dB -37.32 dB 3:31 04-A Flower
DR14 -9.94 dB -33.00 dB 6:20 05-Music for Marcel Duchamp
DR12 -21.48 dB -39.95 dB 3:34 06-Experiences No. 2
DR13 -15.57 dB -31.51 dB 2:12 07-A Room
DR9 -13.41 dB -29.92 dB 0:30 08-Three Songs I. Twenty years after
DR10 -4.46 dB -22.37 dB 0:56 09-Three Songs II. Is it as it was
DR11 -9.03 dB -25.94 dB 1:23 10-Three Songs III. At East and ingredients
DR18 -10.03 dB -34.68 dB 5:03 11-Two Pieces for Piano I
DR20 -3.68 dB -30.71 dB 5:20 12-Two Pieces for Piano II
DR12 -13.87 dB -31.09 dB 1:43 13-Five Songs 1. little four paws
DR13 -6.62 dB -25.92 dB 3:38 14-Five Songs 2. little Christmas tree
DR12 -8.70 dB -25.35 dB 1:11 15-Five Songs 3. in Just-
DR13 -1.69 dB -21.46 dB 1:00 16-Five Songs 4. hist whist
DR10 -12.58 dB -29.16 dB 1:06 17-Five Songs 5. Tumbling hair
DR17 -17.20 dB -43.13 dB 1:26 18-Prelude for Meditation
DR21 -8.34 dB -35.76 dB 7:49 19-She is Asleep
DR20 -0.01 dB -24.14 dB 1:23 20-Nowth upon nacht
DR15 -13.50 dB -33.73 dB 8:25 21-Dream var.
––––––––––––––––––––––––––––––––––––––––

Number of tracks: 21
Official DR value: DR14

Samplerate: 44100 Hz
Channels: 2
Bits per sample: 16
Bitrate: 252 kbps
Codec: FLAC
================================================================================

John Cage - As It Is (2012) {ECM 2268}
John Cage - As It Is (2012) {ECM 2268}
John Cage - As It Is (2012) {ECM 2268}


Thanks to BlackPeteW for the rip