Subcategories

John Cage - Complete Piano Music Vol.7 - Pieces 1933 - 1950 (2001)

Posted By: basa005
John Cage - Complete Piano Music Vol.7 - Pieces 1933 - 1950 (2001)

John Cage - Complete Piano Music Vol.7 - Pieces 1933 - 1950 (2001)
EAC RIP | APE + CUE + LOG | COVER + BOOK | RAR FILES (3% recovery) | 203 Mb
Classical | Dabringhaus & Grimm MDG 613 0793-2

John Cage - Complete Piano Music Vol.7 - Pieces 1933 - 1950 (2001)

Tracklist:
1. Soliloquy (1945) [3:04]
2. Ophelia (1946) [8:00]
3 - 11. The Seasons (1947) [16:06]
12 - 13. Two Pieces for Piano (1935) [3:57]
14. Jazz Study (1942) [2:52]
15 - 19. Metamorphosis (1942) [15:39]
20. Quest - second movement (1935) [1:29]
21 - 23. Three Easy Pieces (1933) [6:52]
24. A Room (1943) [3:25]
25 - 26. Crete & Dad (1945) [1:13]
27 - 28. Two Pieces for Piano (1946) [9:27]
29. Ad Lib. (1942) [3:56]
30 - 32. Triple-Paced - first version (1943) [3:09]

Steffen Schleiermacher: piano

http://www.sonoloco.com/rev/mdg/0793/cage7.html


Exact Audio Copy V0.99 prebeta 4 from 23. January 2008

Estrazione File Di Log EAC Del 13. Luglio 2010, 15:46

John Cage / Complete Piano Music

Unità Predefinita: ATAPI DVD A DH16A1L Adapter: 1 ID: 0

Modalità Di Lettura: : Sicura
Utilizza Lettura Accurata : Sì
Disattiva Cache Audio : No
Rileva Errori Lettura C2 : Sì

Correzione Offset Di Lettura: : 6
Sovrascrivi Anche Nel Lead-In E Lead-Out : No
Riempi Sample Offset Mancanti Con Silenzio : Sì
Rimuovi Blocchi Di Silenzio Ad Inizio E Fine Traccia : No
Usa I Sample Nulli Nel Calcolo CRC : Sì
Interfaccia Usata : Interfaccia Nativa Win32 Per Windows NT & 2000

Formato Di Destinazione Scelto: : Routine Interne WAV
Formato Sample : 44.100 Hz; 16 Bit; Stereo


TOC Del CD Estratto

Traccia | Inizio | Lunghezza | Inizio Settore | Fine Settore
––––––––––––––––––––––––––––––––
1 | 0:00.00 | 3:12.72 | 0 | 14471
2 | 3:12.72 | 8:09.48 | 14472 | 51194
3 | 11:22.45 | 1:40.02 | 51195 | 58696
4 | 13:02.47 | 1:32.70 | 58697 | 65666
5 | 14:35.42 | 0:52.68 | 65667 | 69634
6 | 15:28.35 | 2:31.52 | 69635 | 81011
7 | 18:00.12 | 1:36.20 | 81012 | 88231
8 | 19:36.32 | 3:33.65 | 88232 | 104271
9 | 23:10.22 | 0:51.43 | 104272 | 108139
10 | 24:01.65 | 2:23.45 | 108140 | 118909
11 | 26:25.35 | 1:03.37 | 118910 | 123671
12 | 27:28.72 | 2:16.25 | 123672 | 133896
13 | 29:45.22 | 1:49.18 | 133897 | 142089
14 | 31:34.40 | 3:01.57 | 142090 | 155721
15 | 34:36.22 | 2:49.48 | 155722 | 168444
16 | 37:25.70 | 2:45.32 | 168445 | 180851
17 | 40:11.27 | 5:26.33 | 180852 | 205334
18 | 45:37.60 | 1:20.07 | 205335 | 211341
19 | 46:57.67 | 3:28.05 | 211342 | 226946
20 | 50:25.72 | 1:38.68 | 226947 | 234364
21 | 52:04.65 | 1:25.02 | 234365 | 240741
22 | 53:29.67 | 1:04.10 | 240742 | 245551
23 | 54:34.02 | 0:57.50 | 245552 | 249876
24 | 55:31.52 | 3:35.43 | 249877 | 266044
25 | 59:07.20 | 0:51.50 | 266045 | 269919
26 | 59:58.70 | 0:30.70 | 269920 | 272239
27 | 60:29.65 | 4:10.35 | 272240 | 291024
28 | 64:40.25 | 5:29.50 | 291025 | 315749
29 | 70:10.00 | 4:05.35 | 315750 | 334159
30 | 74:15.35 | 1:15.34 | 334160 | 339818
31 | 75:30.69 | 1:12.23 | 339819 | 345241
32 | 76:43.17 | 0:41.68 | 345242 | 348384


Stato Intervallo Ed Errori

Intervallo Selezionato

Nome File C:\avaxhome\John Cage - Complete Piano Music vol.7.wav

Livello Di Picco 96.7 %
Qualità Intervallo 100.0 %
Copia CRC A0868381
Copia Corretta

Non Sono Stati Riscontrati Errori


Sommario Accuraterip

Traccia 1 Non Presente Nel Database
Traccia 2 Non Presente Nel Database
Traccia 3 Non Presente Nel Database
Traccia 4 Non Presente Nel Database
Traccia 5 Non Presente Nel Database
Traccia 6 Non Presente Nel Database
Traccia 7 Non Presente Nel Database
Traccia 8 Non Presente Nel Database
Traccia 9 Non Presente Nel Database
Traccia 10 Non Presente Nel Database
Traccia 11 Non Presente Nel Database
Traccia 12 Non Presente Nel Database
Traccia 13 Non Presente Nel Database
Traccia 14 Non Presente Nel Database
Traccia 15 Non Presente Nel Database
Traccia 16 Non Presente Nel Database
Traccia 17 Non Presente Nel Database
Traccia 18 Non Presente Nel Database
Traccia 19 Non Presente Nel Database
Traccia 20 Non Presente Nel Database
Traccia 21 Non Presente Nel Database
Traccia 22 Non Presente Nel Database
Traccia 23 Non Presente Nel Database
Traccia 24 Non Presente Nel Database
Traccia 25 Non Presente Nel Database
Traccia 26 Non Presente Nel Database
Traccia 27 Non Presente Nel Database
Traccia 28 Non Presente Nel Database
Traccia 29 Non Presente Nel Database
Traccia 30 Non Presente Nel Database
Traccia 31 Non Presente Nel Database
Traccia 32 Non Presente Nel Database

Nessuna Delle Tracce è Presente Nel Database AccurateRip

Fine Del Resoconto Di Stato


download:
part 1
part 2
part 3

cover+book:
cover