Subcategories

John Cage - Complete Piano Music Vol. 8 - Steffen Schleiermacher (2002)

Posted By: basa005
John Cage - Complete Piano Music Vol. 8 - Steffen Schleiermacher (2002)

John Cage - Complete Piano Music Vol. 8 - Steffen Schleiermacher (2002)
EAC RIP | APE + CUE + LOG | COVER + BOOK | RAR FILES (3% recovery) | 150 Mb
Classical | Musikproduktion Dabringhaus Und Grimm MDG 613 0794-2


John Cage - Complete Piano Music Vol. 8 - Steffen Schleiermacher (2002)


Tracklist
1 Perpetual Tango
2 In A Landscape
Suite For Toy Piano (Version For Piano)
3 I
4 II
5 III
6 IV
7 V
Cheap Imitation
8 I
9 II
10 III
-
11 Dream
12 Swinging
13 Perpetual Tango

Credits
Composed By, Other [Liner Notes] - John Cage
Executive Producer - Dr. Imlind Capelle
Photography - Michelle Uting
Piano - Steffen Schleiermacher
Producer - Reimund Grimm , Werner Dabringhaus
Recorded By [Recording Supervisor] - Friedrich Wilhelm Rödding
Tracklist
1 Perpetual Tango
2 In A Landscape
Suite For Toy Piano (Version For Piano)
3 I
4 II
5 III
6 IV
7 V
Cheap Imitation
8 I
9 II
10 III
-
11 Dream
12 Swinging
13 Perpetual Tango

Credits
Composed By, Other [Liner Notes] - John Cage
Executive Producer - Dr. Imlind Capelle
Photography - Michelle Uting
Piano - Steffen Schleiermacher
Producer - Reimund Grimm , Werner Dabringhaus
Recorded By [Recording Supervisor] - Friedrich Wilhelm Rödding


Exact Audio Copy V0.99 prebeta 4 from 23. January 2008

Estrazione File Di Log EAC Del 16. Aprile 2010, 14:20

John Cage / Complete Piano Music

Unità Predefinita: ATAPI DVD A DH16A1L Adapter: 1 ID: 0

Modalità Di Lettura: : Sicura
Utilizza Lettura Accurata : Sì
Disattiva Cache Audio : No
Rileva Errori Lettura C2 : Sì

Correzione Offset Di Lettura: : 6
Sovrascrivi Anche Nel Lead-In E Lead-Out : No
Riempi Sample Offset Mancanti Con Silenzio : Sì
Rimuovi Blocchi Di Silenzio Ad Inizio E Fine Traccia : No
Usa I Sample Nulli Nel Calcolo CRC : Sì
Interfaccia Usata : Interfaccia Nativa Win32 Per Windows NT & 2000

Formato Di Destinazione Scelto: : Routine Interne WAV
Formato Sample : 44.100 Hz; 16 Bit; Stereo


TOC Del CD Estratto

Traccia | Inizio | Lunghezza | Inizio Settore | Fine Settore
––––––––––––––––––––––––––––––––
1 | 0:00.00 | 7:43.69 | 0 | 34793
2 | 7:43.69 | 9:51.68 | 34794 | 79186
3 | 17:35.62 | 1:43.60 | 79187 | 86971
4 | 19:19.47 | 1:43.09 | 86972 | 94705
5 | 21:02.56 | 1:17.06 | 94706 | 100486
6 | 22:19.62 | 1:47.18 | 100487 | 108529
7 | 24:07.05 | 0:50.56 | 108530 | 112335
8 | 24:57.61 | 6:40.70 | 112336 | 142405
9 | 31:38.56 | 7:43.69 | 142406 | 177199
10 | 39:22.50 | 18:58.70 | 177200 | 262619
11 | 58:21.45 | 7:41.69 | 262620 | 297263
12 | 66:03.39 | 1:31.20 | 297264 | 304108
13 | 67:34.59 | 12:01.21 | 304109 | 358204


Stato Intervallo Ed Errori

Intervallo Selezionato

Nome File C:\avaxhome\John Cage - Complete Piano Music.wav

Livello Di Picco 26.4 %
Qualità Intervallo 100.0 %
Copia CRC 34D2AAC8
Copia Corretta

Non Sono Stati Riscontrati Errori


Sommario Accuraterip

Traccia 1 Non Presente Nel Database
Traccia 2 Non Presente Nel Database
Traccia 3 Non Presente Nel Database
Traccia 4 Non Presente Nel Database
Traccia 5 Non Presente Nel Database
Traccia 6 Non Presente Nel Database
Traccia 7 Non Presente Nel Database
Traccia 8 Non Presente Nel Database
Traccia 9 Non Presente Nel Database
Traccia 10 Non Presente Nel Database
Traccia 11 Non Presente Nel Database
Traccia 12 Non Presente Nel Database
Traccia 13 Non Presente Nel Database

Nessuna Delle Tracce è Presente Nel Database AccurateRip

Fine Del Resoconto Di Stato


download:
part 1
part 2

cover+book:
cover