John Coltrane - Plays It Cool (2000) {Metro}

Posted By: tiburon
John Coltrane - Plays It Cool (2000) {Metro}

John Coltrane - Plays It Cool (2000) {Metro}
EAC 0.95b4 | FLAC Image level 8 | Cue+Log | Full Scans 600dpi | 405MB + 5% Recovery
Genre: Hard Bop

The John Coltrane Quartet's mind expanding quality is displayed on a half-dozen trinkets with Coltrane's innovative dressing of Richard Rodgers and Oscar Hammerstein's "My Favorite Things," and the high-energy "Blue Trane," the glossiest. He shows a softness on "Naima," and links the jazz idiom with divine power on "Spiritual" for a musical baptismal that's excellent for impromptu meditation sessions. The six tracks, which include Billy Eckstine's much recorded "I Want to Talk About You," flows for more than 60 minutes, which is enough of 'Trane and his crews' therapeutic expressions to clear the cobwebs, tranquil nerves, and soothe the savage beast.
Track List
01. Blue Train (9:00)
02. Naima (4:09)
03. Traneing In (11:36)
04. My Favourite Things (20:30)
05. Spiritual (12:02)
06. I Want To Talk To You (9:43)

musicians
John Coltrane - saxophone
McCoy Tyner - piano
Eric Dolphy - flute, alto clarinet, bass clarinet
Reggie Workman - bass (1, 2, 4)
Jimmy Garrison - bass (3, 5, 6)
Elvin Jones - drums

Recorded at Konserthuset, Stockholm early '60s.


EAC extraction logfile from 12. May 2007, 20:40 for CD
John Coltrane / Plays It Cool

Used drive : LITE-ON DVDRW SOHW-1213S Adapter: 1 ID: 1
Read mode : Secure with NO C2, accurate stream, disable cache
Read offset correction : 12
Overread into Lead-In and Lead-Out : No

Used output format : Internal WAV Routines
44.100 Hz; 16 Bit; Stereo

Other options :
Fill up missing offset samples with silence : Yes
Delete leading and trailing silent blocks : No
Installed external ASPI interface


Range status and errors
Selected range
Filename E:\INCOMING\EAC\John Coltrane - Plays It Cool.wav

Peak level 99.8 %
Range quality 100.0 %
CRC 83836CA8
Copy OK

No errors occured

End of status report


––––––––––––––––––––––––––––––––––––––––
Analyzed: John Coltrane / Plays It Cool
––––––––––––––––––––––––––––––––––––––––

DR Peak RMS Duration Track
––––––––––––––––––––––––––––––––––––––––
DR10 -0.01 dB -12.40 dB 9:00 01-Blue Train
DR11 -0.01 dB -13.33 dB 4:09 02-Naima
DR9 -0.01 dB -11.14 dB 11:36 03-Traneing In
DR9 -0.01 dB -11.96 dB 20:30 04-My Favourite Things
DR11 -0.01 dB -13.33 dB 12:02 05-Spiritual
DR10 -0.01 dB -12.97 dB 9:43 06-I Want To Talk To You
––––––––––––––––––––––––––––––––––––––––

Number of tracks: 6
Official DR value: DR10

Samplerate: 44100 Hz
Channels: 2
Bits per sample: 16
Bitrate: 821 kbps
Codec: FLAC
================================================================================

John Coltrane - Plays It Cool (2000) {Metro}
John Coltrane - Plays It Cool (2000) {Metro}
John Coltrane - Plays It Cool (2000) {Metro}


Thanks to the original ripper