Subcategories

John Georgiadis, The London Virtuosi, Anthony Camden - Albinoni: Oboe Concerti (2000)

Posted By: ArlegZ
John Georgiadis, The London Virtuosi, Anthony Camden - Albinoni: Oboe Concerti (2000)

John Georgiadis, The London Virtuosi, Anthony Camden - Albinoni: Oboe Concerti (2000)
EAC | FLAC | Image (Cue & Log) ~ 875 Mb | Total time: 64:05+58:27+52:14 | Scans included
Classical | Label: Naxos | # 8.503050 | Recorded: 1992, 1994

The London Virtuosi use modern instruments, but their playing is fresh and refined and the digital recording is natural and beautifully balanced. The calibre of Anthony Camden’s solo contribution is readily shown in slow movements, matched by Georgiadis’s rapt, sensitive accompaniments. On the first disc Camden’s excellent colleague is Julia Girdwood, but for the two other collections Alison Alty takes over, and the partnership seems even more felicitous, with the two instruments blended quite perfectly. Also included is a Sinfonia arranged by Camden a Sinfonia concertante. This series can be strongly recommended on all counts.
–Penguin Guide


Performer:
Anthony Camden - oboe
Julia Girdwood - oboe
Alison Alty - oboe
The London Virtuosi
Conductor - John Georgiadis

Track List
CD1:
Oboe Concerto in C major, Op. 9, No. 5
01. I. Allegro
02. II. Adagio (non troppo)
03. III. Allegro
Oboe Concerto in F major, Op. 9, No. 3
04. I. Allegro
05. II. Adagio (non troppo)
06. III. Allegro
Oboe Concerto in D minor, Op. 9, No. 2
07. I. Allegro e non presto
08. II. Adagio
09. III. Allegro
Oboe Concerto in B flat major, Op. 9, No. 11
10. I. Allegro
11. II. Adagio
12. III. Allegro
Oboe Concerto in G minor, Op. 9, No. 8
13. I. Allegro
14. II. Adagio
15. III. Allegro
Oboe Concerto in C major, Op. 9, No. 9
16. I. Allegro
17. II. Adagio (non troppo)
18. III. Allegro
CD2:
Sinfonia for two oboes in G major
01. I. Allegro
02. II. Adagio
03. III. Allegro
Concerto for two oboes in C major, Op. 7, No. 2
04. I. Allegro
05. II. Adagio
06. III. Allegro
Oboe Concerto in B flat major, Op. 7, No. 3
07. I. Allegro
08. II. Adagio
09. III. Allegro
Concerto for two oboes in D major, Op. 7, No. 8
10. I. Allegro
11. II. Largo
12. III. Allegro
Oboe Concerto in F major, Op. 7, No. 9
13. I. Allegro
14. II. Adagio
15. III. Allegro
Oboe Concerto in D major, Op. 7, No. 1
16. I. Allegro
17. II. Adagio e staccato
18. III. Allegro assai
Concerto for two oboes in G major, Op. 9, No. 6
19. I. Allegro
20. II. Adagio non troppo
21. III. Allegro
CD3:
Concerto for two oboes in D major, Op. 9, No. 12
01. I. Allegro
02. II. Adagio
03. III. Allegro
Oboe Concerto in C major, Op. 7, No. 12
04. I. Allegro
05. II. Adagio
06. III. Allegro
Oboe Concerto in G major, Op. 7, No. 4
07. I. Allegro
08. II. Adagio
09. III. Allegro
Concerto for two oboes in C major, Op. 7, No. 5
10. I. Allegro
11. II. Adagio
12. III. Allegro
Oboe Concerto in D major, Op. 7, No. 6
13. I. Allegro
14. II. Adagio
15. III. Allegro
Concerto for two oboes in C major, Op. 7, No. 11
16. I. Allegro
17. II. Adagio
18. III. Allegro


Exact Audio Copy V1.3 from 2. September 2016

EAC extraction logfile from 10. June 2018, 23:06

Anthony Camden, The London Virtuosi, John Georgiadis / Albinoni - Oboe Concerti Vol.1

Used drive : HL-DT-STDVDRAM GH24NS95 Adapter: 1 ID: 0

Read mode : Secure
Utilize accurate stream : Yes
Defeat audio cache : Yes
Make use of C2 pointers : No

Read offset correction : 6
Overread into Lead-In and Lead-Out : No
Fill up missing offset samples with silence : Yes
Delete leading and trailing silent blocks : No
Null samples used in CRC calculations : Yes
Used interface : Native Win32 interface for Win NT & 2000

Used output format : User Defined Encoder
Selected bitrate : 128 kBit/s
Quality : High
Add ID3 tag : No
Command line compressor : C:\Program Files\Exact Audio Copy\Flac\flac.exe
Additional command line options : -V -8 -T "Date=%year%" -T "Genre=%genre%" %source%


TOC of the extracted CD

Track | Start | Length | Start sector | End sector
––––––––––––––––––––––––––––-
1 | 0:00.00 | 3:29.67 | 0 | 15741
2 | 3:29.67 | 1:58.13 | 15742 | 24604
3 | 5:28.05 | 3:19.67 | 24605 | 39596
4 | 8:47.72 | 4:45.00 | 39597 | 60971
5 | 13:32.72 | 2:11.38 | 60972 | 70834
6 | 15:44.35 | 3:44.57 | 70835 | 87691
7 | 19:29.17 | 4:33.33 | 87692 | 108199
8 | 24:02.50 | 5:22.45 | 108200 | 132394
9 | 29:25.20 | 3:07.00 | 132395 | 146419
10 | 32:32.20 | 4:13.32 | 146420 | 165426
11 | 36:45.52 | 3:26.08 | 165427 | 180884
12 | 40:11.60 | 3:12.27 | 180885 | 195311
13 | 43:24.12 | 3:57.15 | 195312 | 213101
14 | 47:21.27 | 2:15.25 | 213102 | 223251
15 | 49:36.52 | 4:03.35 | 223252 | 241511
16 | 53:40.12 | 4:00.53 | 241512 | 259564
17 | 57:40.65 | 3:01.22 | 259565 | 273161
18 | 60:42.12 | 3:23.73 | 273162 | 288459


Range status and errors

Selected range

Filename C:\Program Files\Exact Audio Copy\Flac\Albinoni - Oboe Concerti Vol.1.wav

Peak level 99.9 %
Extraction speed 7.2 X
Range quality 100.0 %
Test CRC 05187CDF
Copy CRC 05187CDF
Copy OK

No errors occurred

End of status report

==== Log checksum E75CF598818E0EF772BC08B2C8D1E28CAAAF8F357505BBB82B22BFC6F8D6DC79 ====


Exact Audio Copy V1.3 from 2. September 2016

EAC extraction logfile from 10. June 2018, 23:26

Anthony Camden, The London Virtuosi, John Georgiadis / Albinoni - Oboe Concerti Vol. 2

Used drive : HL-DT-STDVDRAM GH24NS95 Adapter: 1 ID: 0

Read mode : Secure
Utilize accurate stream : Yes
Defeat audio cache : Yes
Make use of C2 pointers : No

Read offset correction : 6
Overread into Lead-In and Lead-Out : No
Fill up missing offset samples with silence : Yes
Delete leading and trailing silent blocks : No
Null samples used in CRC calculations : Yes
Used interface : Native Win32 interface for Win NT & 2000

Used output format : User Defined Encoder
Selected bitrate : 128 kBit/s
Quality : High
Add ID3 tag : No
Command line compressor : C:\Program Files\Exact Audio Copy\Flac\flac.exe
Additional command line options : -V -8 -T "Date=%year%" -T "Genre=%genre%" %source%


TOC of the extracted CD

Track | Start | Length | Start sector | End sector
––––––––––––––––––––––––––––-
1 | 0:00.00 | 2:47.50 | 0 | 12574
2 | 2:47.50 | 2:45.65 | 12575 | 25014
3 | 5:33.40 | 2:57.10 | 25015 | 38299
4 | 8:30.50 | 3:51.10 | 38300 | 55634
5 | 12:21.60 | 2:48.07 | 55635 | 68241
6 | 15:09.67 | 3:31.30 | 68242 | 84096
7 | 18:41.22 | 2:59.03 | 84097 | 97524
8 | 21:40.25 | 4:08.10 | 97525 | 116134
9 | 25:48.35 | 2:21.25 | 116135 | 126734
10 | 28:09.60 | 2:15.25 | 126735 | 136884
11 | 30:25.10 | 2:45.57 | 136885 | 149316
12 | 33:10.67 | 1:59.28 | 149317 | 158269
13 | 35:10.20 | 2:35.50 | 158270 | 169944
14 | 37:45.70 | 2:33.37 | 169945 | 181456
15 | 40:19.32 | 2:29.33 | 181457 | 192664
16 | 42:48.65 | 1:59.55 | 192665 | 201644
17 | 44:48.45 | 0:47.47 | 201645 | 205216
18 | 45:36.17 | 2:03.10 | 205217 | 214451
19 | 47:39.27 | 3:45.48 | 214452 | 231374
20 | 51:25.00 | 3:45.55 | 231375 | 248304
21 | 55:10.55 | 3:17.30 | 248305 | 263109


Range status and errors

Selected range

Filename C:\Program Files\Exact Audio Copy\Flac\Albinoni - Oboe Concerti Vol. 2.wav

Peak level 94.4 %
Extraction speed 7.7 X
Range quality 100.0 %
Test CRC CAA3F461
Copy CRC CAA3F461
Copy OK

No errors occurred

End of status report

==== Log checksum FA648B2B3A21A35431895CFA5332A4220F010D11D47433C36658395F17CD45F8 ====


Exact Audio Copy V1.3 from 2. September 2016

EAC extraction logfile from 10. June 2018, 23:46

Anthony Camden, The London Virtuosi, John Georgiadis / Albinoni - Oboe Concerti Vol. 3

Used drive : HL-DT-STDVDRAM GH24NS95 Adapter: 1 ID: 0

Read mode : Secure
Utilize accurate stream : Yes
Defeat audio cache : Yes
Make use of C2 pointers : No

Read offset correction : 6
Overread into Lead-In and Lead-Out : No
Fill up missing offset samples with silence : Yes
Delete leading and trailing silent blocks : No
Null samples used in CRC calculations : Yes
Used interface : Native Win32 interface for Win NT & 2000

Used output format : User Defined Encoder
Selected bitrate : 128 kBit/s
Quality : High
Add ID3 tag : No
Command line compressor : C:\Program Files\Exact Audio Copy\Flac\flac.exe
Additional command line options : -V -8 -T "Date=%year%" -T "Genre=%genre%" %source%


TOC of the extracted CD

Track | Start | Length | Start sector | End sector
––––––––––––––––––––––––––––-
1 | 0:00.00 | 3:17.47 | 0 | 14821
2 | 3:17.47 | 3:15.05 | 14822 | 29451
3 | 6:32.52 | 2:37.58 | 29452 | 41284
4 | 9:10.35 | 2:57.40 | 41285 | 54599
5 | 12:08.00 | 3:06.25 | 54600 | 68574
6 | 15:14.25 | 2:05.72 | 68575 | 78021
7 | 17:20.22 | 2:27.20 | 78022 | 89066
8 | 19:47.42 | 3:07.38 | 89067 | 103129
9 | 22:55.05 | 2:08.47 | 103130 | 112776
10 | 25:03.52 | 3:26.15 | 112777 | 128241
11 | 28:29.67 | 2:10.58 | 128242 | 138049
12 | 30:40.50 | 2:34.70 | 138050 | 149669
13 | 33:15.45 | 2:42.65 | 149670 | 161884
14 | 35:58.35 | 3:33.70 | 161885 | 177929
15 | 39:32.30 | 2:08.47 | 177930 | 187576
16 | 41:41.02 | 5:16.20 | 187577 | 211296
17 | 46:57.22 | 2:48.43 | 211297 | 223939
18 | 49:45.65 | 2:29.55 | 223940 | 235169


Range status and errors

Selected range

Filename C:\Program Files\Exact Audio Copy\Flac\Albinoni - Oboe Concerti Vol. 3.wav

Peak level 80.8 %
Extraction speed 7.5 X
Range quality 100.0 %
Test CRC 4B98004D
Copy CRC 4B98004D
Copy OK

No errors occurred

End of status report

==== Log checksum BB34C77F2705B4B7D3239AFCA17E93E30C8A1809313602768684DBD983A9DFE2 ====