Subcategories

John Hammond, Jr. - Mileage (1980) [1992 Reissue]

Posted By: jclane

John Hammond, Jr. - Mileage (1980) [1992 Reissue]

John Hammond, Jr. - Mileage (1980) [1992 Reissue]
EAC Rip | FLAC Image + Cue + Log | 236 MB | Complete Scans, 600 dpi PNG | 175 MB
MP3 CBR @320 kbps (LAME 3.99) | Joint Stereo | 101 MB
Sky Ranch Records / Virgin | 72438 390542 3 | Blues

His album, originally released in 1980, perfectly captures both the searing electric and raw acoustic blues stylings of the legendary John Hammond. His close-to-the-bone vocals, masterful fingerstyle and slide guitar, and piercing harmonica keep the flame alive on this collection of blues roots classics by Willie Dixon, Muddy Waters, Howlin' Wolf and Robert Johnson.
Track Listing:

01. My Babe
02. Standing Around Crying
03. Riding in the Moonlight
04. Big 45
05. Seventh Son
06. Red Hot kisses
07. Help Me
08. It Hurts Me
09. 32-20 blues
10. You'll Miss Me
11. Mr. Luck
12. Hot Tamales
13. Diddley daddy


Exact Audio Copy V1.0 beta 3 from 29. August 2011

EAC extraction logfile from 16. January 2013, 3:38

John Hammond / Mileage

Used drive : PLEXTOR DVDR PX-891SA Adapter: 0 ID: 2

Read mode : Secure
Utilize accurate stream : Yes
Defeat audio cache : Yes
Make use of C2 pointers : No

Read offset correction : 6
Overread into Lead-In and Lead-Out : No
Fill up missing offset samples with silence : Yes
Delete leading and trailing silent blocks : No
Null samples used in CRC calculations : Yes
Used interface : Installed external ASPI interface

Used output format : User Defined Encoder
Selected bitrate : 320 kBit/s
Quality : High
Add ID3 tag : No
Command line compressor : C:\Program Files\Exact Audio Copy 1.0\Flac\flac.exe
Additional command line options : -V -8 -T "Genre=%genre%" -T "Artist=%artist%" -T "Title=%title%" -T "Album=%albumtitle%" -T "Date=%year%" -T "Tracknumber=%tracknr%" -T "Comment=%comment%" %source%

TOC of the extracted CD

Track | Start | Length | Start sector | End sector
––––––––––––––––––––––––––––-
1 | 0:00.33 | 3:07.27 | 33 | 14084
2 | 3:07.60 | 4:39.70 | 14085 | 35079
3 | 7:47.55 | 2:42.30 | 35080 | 47259
4 | 10:30.10 | 3:17.53 | 47260 | 62087
5 | 13:47.63 | 2:28.50 | 62088 | 73237
6 | 16:16.38 | 4:39.67 | 73238 | 94229
7 | 20:56.30 | 3:52.50 | 94230 | 111679
8 | 24:49.05 | 2:43.50 | 111680 | 123954
9 | 27:32.55 | 2:18.15 | 123955 | 134319
10 | 29:50.70 | 2:55.65 | 134320 | 147509
11 | 32:46.60 | 2:50.68 | 147510 | 160327
12 | 35:37.53 | 2:20.62 | 160328 | 170889
13 | 37:58.40 | 4:01.18 | 170890 | 188982

Range status and errors

Selected range

Filename K:\Lossless Temp\John Hammond\John Hammond - Mileage - 1980 (1992 Sky Ranch Records, 72438 390542 3)\John Hammond - Mileage.wav

Peak level 100.0 %
Extraction speed 5.7 X
Range quality 100.0 %
Test CRC D728D6F6
Copy CRC D728D6F6
Copy OK

No errors occurred

AccurateRip summary

Track 1 not present in database
Track 2 not present in database
Track 3 not present in database
Track 4 not present in database
Track 5 not present in database
Track 6 not present in database
Track 7 not present in database
Track 8 not present in database
Track 9 not present in database
Track 10 not present in database
Track 11 not present in database
Track 12 not present in database
Track 13 not present in database

None of the tracks are present in the AccurateRip database

End of status report

==== Log checksum 657341A8622234E962C47B82761225F419EFDB3A6E3A0023DA97353E95284025 ====


[CUETools log; Date: 22/01/2013 11:35:03; Version: 2.1.4]
Pregap length 00:00:33.
[AccurateRip ID: 0014cee0-00cdf6da-d209d70d] disk not present in database.

Track Peak [ CRC32 ] [W/O NULL] [ LOG ]
– 100,0 [D728D6F6] [CC185147] CRC32
01 91,9 [FF186F71] [95E8B186]
02 99,9 [34BFE6CD] [7D3F1845]
03 76,4 [514E5AC3] [54DCA73A]
04 66,3 [7DB67512] [F8775393]
05 97,5 [93D12CCD] [2267DD07]
06 88,3 [FA4B0FFE] [B520E477]
07 95,6 [37A6BBFC] [73B75638]
08 67,7 [E81C4819] [0797FB3A]
09 74,0 [7EF2DC9C] [66627FE4]
10 70,5 [74F3F3A0] [6FB99A45]
11 70,8 [9E8D82BE] [3EE631D0]
12 73,1 [16150041] [3D4B3864]
13 100,0 [A8B52C0C] [37FD2CD0]


Personnel:

*John Hammond, Jr - guitars, harmonica and vocals
*Charles Otis - drums
*Sherman Holmes - Bass
*Bob Montalto - piano on duets
*Robbie Kondor - piano on band cuts

Original Released Date: 1980
CD Released Date: 1992 by Sky Ranch Records
Format: CD, Album
Length: 42:00

John Hammond, Jr. - Mileage (1980) [1992 Reissue]
John Hammond, Jr. - Mileage (1980) [1992 Reissue]

******************************************************

CD Rip by Swamp Fox

The files are interchangeable!
Uploaded
Lossless | MP3 | Scans

Depositfiles
Lossless | MP3 | Scans

Cloudzer
Lossless | MP3 | Scans


pw: www.AvaxHome.ru