Subcategories

John Handy - In the Vernacular (1959) & No Coast Jazz (1960) [Reissue 2011]

Posted By: gribovar
John Handy - In the Vernacular (1959) & No Coast Jazz (1960) [Reissue 2011]

John Handy - In the Vernacular (1959) & No Coast Jazz (1960) [Reissue 2011]
EAC Rip | FLAC (tracks+.cue+log) - 440 MB | MP3 CBR 320 kbps (LAME 3.93) - 193 MB | Covers (14 MB) included
Genre: Jazz | RAR 3% Rec. | Label: Fresh Sound Records (FSR-CD 647)

The two albums on this CD were the first John Handy recorded as a leader. This young alto saxophonist he also plays tenor on the first album -from Texas had gained exposure and experience working with Charles Mingus and Randy Weston in 1959. They taught me self-confidence, he said, and these recordings are full of it. His flawlessly controlled playing is strong and inventively contemporary without succumbing to the tyranny of Bird. For his well-received leader debut, In the Vernacular, he shared the front line with the brilliant trumpeter Richard Williams supported by a near-perfect rhythm section with pianist Roland Hanna.
On the second album, No Coast Jazz, Handy is the consistent focal point of a quartet in which, like pianist Don Friedman, he uses a melodic, gentle style, building a singing, emotional quality saved from sentimentality by the cutting edge of his tone - at times he even recalls a more temperate Ornette Coleman as he slashes his way through piercingly angular passages.
Both albums stand as markers of a great, singular and stimulating jazz talent.
Tracklist:

In the Vernacular (1959):
01. I'll Close My Eyes
02. First Time
03. Suggested Line
04. Problem Too
05. Quote, Unquote
06. Blues in the Vernacular
07. Dance to the Lady
08. I'll Never Smile Again

No Coast Jazz (1960):
09. To Randy
10. Tales of Paradise
11. Boo's Ups and Downs
12. Hi Number
13. Pretty Side Avenue
14. No Coast

Total time: 01:15:48

Exact Audio Copy V1.0 beta 3 from 29. August 2011

EAC extraction logfile from 14. October 2011, 14:32

John Handy / In The Vernacular/No Coast Jazz

Used drive : ATAPI DVD A DH16ABSH Adapter: 2 ID: 1

Read mode : Secure
Utilize accurate stream : Yes
Defeat audio cache : Yes
Make use of C2 pointers : No

Read offset correction : 6
Overread into Lead-In and Lead-Out : No
Fill up missing offset samples with silence : Yes
Delete leading and trailing silent blocks : No
Null samples used in CRC calculations : Yes
Used interface : Native Win32 interface for Win NT & 2000
Gap handling : Appended to previous track

Used output format : User Defined Encoder
Selected bitrate : 768 kBit/s
Quality : High
Add ID3 tag : No
Command line compressor : C:\Program Files (x86)\Exact Audio Copy\FLAC\FLAC.EXE
Additional command line options : -6 -V -T "ARTIST=%artist%" -T "TITLE=%title%" -T "ALBUM=%albumtitle%" -T "DATE=%year%" -T "TRACKNUMBER=%tracknr%" -T "GENRE=%genre%" -T "COMMENT=%comment%" -T "BAND=%albuminterpret%" -T "ALBUMARTIST=%albuminterpret%" -T "COMPOSER=%composer%" %haslyrics%–tag-from-file=LYRICS="%lyricsfile%"%haslyrics% -T "DISCNUMBER=%cdnumber%" -T "TOTALDISCS=%totalcds%" -T "TOTALTRACKS=%numtracks%" %hascover%–picture="%coverfile%"%hascover% %source% -o %dest%


TOC of the extracted CD

Track | Start | Length | Start sector | End sector
––––––––––––––––––––––––––––-
1 | 0:00.00 | 3:04.72 | 0 | 13871
2 | 3:04.72 | 7:03.12 | 13872 | 45608
3 | 10:08.09 | 5:28.74 | 45609 | 70282
4 | 15:37.08 | 4:26.30 | 70283 | 90262
5 | 20:03.38 | 3:08.15 | 90263 | 104377
6 | 23:11.53 | 5:07.71 | 104378 | 127473
7 | 28:19.49 | 5:15.10 | 127474 | 151108
8 | 33:34.59 | 3:38.59 | 151109 | 167517
9 | 37:13.43 | 6:18.48 | 167518 | 195915
10 | 43:32.16 | 4:55.45 | 195916 | 218085
11 | 48:27.61 | 8:17.04 | 218086 | 255364
12 | 56:44.65 | 7:00.57 | 255365 | 286921
13 | 63:45.47 | 5:31.63 | 286922 | 311809
14 | 69:17.35 | 6:29.57 | 311810 | 341041


Track 1

Filename C:\Users\owner\Uploads\Ex\John Handy - In The Vernacular-No Coast Jazz (1959-60) [FLAC]\01 - I'll Close My Eyes.wav

Pre-gap length 0:00:02.00

Peak level 100.0 %
Extraction speed 1.9 X
Track quality 100.0 %
Test CRC DD0A80BE
Copy CRC DD0A80BE
Track not present in AccurateRip database
Copy OK

Track 2

Filename C:\Users\owner\Uploads\Ex\John Handy - In The Vernacular-No Coast Jazz (1959-60) [FLAC]\02 - First Time.wav

Pre-gap length 0:00:01.51

Peak level 100.0 %
Extraction speed 2.3 X
Track quality 100.0 %
Test CRC 53E70CEB
Copy CRC 53E70CEB
Track not present in AccurateRip database
Copy OK

Track 3

Filename C:\Users\owner\Uploads\Ex\John Handy - In The Vernacular-No Coast Jazz (1959-60) [FLAC]\03 - Suggested Line.wav

Pre-gap length 0:00:01.41

Peak level 100.0 %
Extraction speed 2.0 X
Track quality 99.9 %
Test CRC BAA4F3A6
Copy CRC BAA4F3A6
Track not present in AccurateRip database
Copy OK

Track 4

Filename C:\Users\owner\Uploads\Ex\John Handy - In The Vernacular-No Coast Jazz (1959-60) [FLAC]\04 - Problem Too.wav

Pre-gap length 0:00:01.39

Peak level 100.0 %
Extraction speed 2.7 X
Track quality 100.0 %
Test CRC AA446BD7
Copy CRC AA446BD7
Track not present in AccurateRip database
Copy OK

Track 5

Filename C:\Users\owner\Uploads\Ex\John Handy - In The Vernacular-No Coast Jazz (1959-60) [FLAC]\05 - Quote, Unquote.wav

Pre-gap length 0:00:01.62

Peak level 100.0 %
Extraction speed 1.8 X
Track quality 99.9 %
Test CRC BA14228D
Copy CRC BA14228D
Track not present in AccurateRip database
Copy OK

Track 6

Filename C:\Users\owner\Uploads\Ex\John Handy - In The Vernacular-No Coast Jazz (1959-60) [FLAC]\06 - Blues In The Vernacular.wav

Pre-gap length 0:00:02.00

Peak level 100.0 %
Extraction speed 2.9 X
Track quality 100.0 %
Test CRC 470FD9F5
Copy CRC 470FD9F5
Track not present in AccurateRip database
Copy OK

Track 7

Filename C:\Users\owner\Uploads\Ex\John Handy - In The Vernacular-No Coast Jazz (1959-60) [FLAC]\07 - Dance To The Lady.wav

Pre-gap length 0:00:01.48

Peak level 100.0 %
Extraction speed 3.2 X
Track quality 100.0 %
Test CRC 737745FA
Copy CRC 737745FA
Track not present in AccurateRip database
Copy OK

Track 8

Filename C:\Users\owner\Uploads\Ex\John Handy - In The Vernacular-No Coast Jazz (1959-60) [FLAC]\08 - I'll Never Smile Again.wav

Pre-gap length 0:00:01.66

Peak level 100.0 %
Extraction speed 2.3 X
Track quality 99.9 %
Test CRC 838F42B0
Copy CRC 838F42B0
Track not present in AccurateRip database
Copy OK

Track 9

Filename C:\Users\owner\Uploads\Ex\John Handy - In The Vernacular-No Coast Jazz (1959-60) [FLAC]\09 - To Randy.wav

Pre-gap length 0:00:02.01

Peak level 100.0 %
Extraction speed 3.4 X
Track quality 100.0 %
Test CRC 15E213DE
Copy CRC 15E213DE
Track not present in AccurateRip database
Copy OK

Track 10

Filename C:\Users\owner\Uploads\Ex\John Handy - In The Vernacular-No Coast Jazz (1959-60) [FLAC]\10 - Tales Of Paradise.wav

Pre-gap length 0:00:01.54

Peak level 99.9 %
Extraction speed 3.5 X
Track quality 100.0 %
Test CRC E156FB5E
Copy CRC E156FB5E
Track not present in AccurateRip database
Copy OK

Track 11

Filename C:\Users\owner\Uploads\Ex\John Handy - In The Vernacular-No Coast Jazz (1959-60) [FLAC]\11 - Boo's Ups And Downs.wav

Pre-gap length 0:00:01.53

Peak level 99.9 %
Extraction speed 3.7 X
Track quality 100.0 %
Test CRC 18D7E065
Copy CRC 18D7E065
Track not present in AccurateRip database
Copy OK

Track 12

Filename C:\Users\owner\Uploads\Ex\John Handy - In The Vernacular-No Coast Jazz (1959-60) [FLAC]\12 - Hi Number.wav

Pre-gap length 0:00:01.15

Peak level 100.0 %
Extraction speed 4.1 X
Track quality 100.0 %
Test CRC CE2FAAF1
Copy CRC CE2FAAF1
Track not present in AccurateRip database
Copy OK

Track 13

Filename C:\Users\owner\Uploads\Ex\John Handy - In The Vernacular-No Coast Jazz (1959-60) [FLAC]\13 - Pretty Side Avenue.wav

Pre-gap length 0:00:02.08

Peak level 100.0 %
Extraction speed 4.0 X
Track quality 100.0 %
Test CRC F02CC528
Copy CRC F02CC528
Track not present in AccurateRip database
Copy OK

Track 14

Filename C:\Users\owner\Uploads\Ex\John Handy - In The Vernacular-No Coast Jazz (1959-60) [FLAC]\14 - No Coast.wav

Pre-gap length 0:00:02.00

Peak level 99.9 %
Extraction speed 3.3 X
Track quality 99.9 %
Test CRC 65974119
Copy CRC 65974119
Track not present in AccurateRip database
Copy OK


None of the tracks are present in the AccurateRip database

No errors occurred

End of status report

==== Log checksum FFE4C6513EE1DEE5D057120AD322668CB93E071977B251B41C5F096852C16ADC ====

[CUETools log; Date: 13.02.2018 19:41:05; Version: 2.1.4]
[CTDB TOCID: GyahutxhLpSg9vwMSoODZmi00eI-] found.
Track | CTDB Status
1 | (2/2) Accurately ripped
2 | (2/2) Accurately ripped
3 | (2/2) Accurately ripped
4 | (2/2) Accurately ripped
5 | (2/2) Accurately ripped
6 | (2/2) Accurately ripped
7 | (2/2) Accurately ripped
8 | (2/2) Accurately ripped
9 | (2/2) Accurately ripped
10 | (2/2) Accurately ripped
11 | (2/2) Accurately ripped
12 | (2/2) Accurately ripped
13 | (2/2) Accurately ripped
14 | (2/2) Accurately ripped
[AccurateRip ID: 00244f7f-018926cd-b811c30e] found.
Track [ CRC | V2 ] Status
01 [97f19d6b|34b94abf] (0+2/2) Accurately ripped
02 [5c7c8727|583a54c0] (0+2/2) Accurately ripped
03 [ecedd738|c483cda7] (0+2/2) Accurately ripped
04 [6dff4cdf|ec708414] (0+2/2) Accurately ripped
05 [20f37c6b|79a85a10] (0+2/2) Accurately ripped
06 [10e09178|61584b80] (0+2/2) Accurately ripped
07 [b8e4d4c7|c3cdb229] (0+2/2) Accurately ripped
08 [59d1b471|9136f148] (0+2/2) Accurately ripped
09 [85c94864|0fbe888f] (0+2/2) Accurately ripped
10 [3f4e75b4|fb7381d3] (0+2/2) Accurately ripped
11 [27aa2dab|858b7c02] (0+2/2) Accurately ripped
12 [fe456d82|32e46f15] (0+2/2) Accurately ripped
13 [92ffb0e0|5d65097d] (0+2/2) Accurately ripped
14 [c89f5f6e|1ee5daaa] (0+2/2) Accurately ripped

Track Peak [ CRC32 ] [W/O NULL] [ LOG ]
– 100,0 [CC454377] [514E61E5]
01 100,0 [DD0A80BE] [CFF017D2] CRC32
02 100,0 [53E70CEB] [34B0618E] CRC32
03 100,0 [BAA4F3A6] [D797D18D] CRC32
04 100,0 [AA446BD7] [B651D077] CRC32
05 100,0 [BA14228D] [B6EA07A6] CRC32
06 100,0 [470FD9F5] [C23951BB] CRC32
07 100,0 [737745FA] [7C6EA019] CRC32
08 100,0 [838F42B0] [A05CC384] CRC32
09 100,0 [15E213DE] [F808EB36] CRC32
10 99,9 [E156FB5E] [88C7ED7B] CRC32
11 99,9 [18D7E065] [B5AC309C] CRC32
12 100,0 [CE2FAAF1] [11932A31] CRC32
13 100,0 [F02CC528] [4424BAF8] CRC32
14 99,9 [65974119] [2FA15A6F] CRC32

Thanks to headman