Subcategories

John Lee Hooker - The World Of Blues (2004)

Posted By: popsakov
John Lee Hooker - The World Of Blues (2004)

John Lee Hooker - The World Of Blues (2004)
EAC Rip | FLAC (Img) + Cue + Log ~ 334 Mb | MP3 CBR320 ~ 186 Mb
Scans Included (JPG, 600 dpi) | RAR 5% Recovery
Blues | MCA/Universal Music #06024 981 2843-5

This compilation contains 20 of John Lee Hooker's hits, recorded in the `50s and `60s, 68 minutes of music.

***************

John Lee Hooker - The World Of Blues (2004)

Track List:

01. Boom Boom [02:43]
02. The Motor City Is Burning [02:52]
03. Baby Please Don’t Go [02:31]
04. I’m In The Mood [02:45]
05. High Priced Woman [02:44]
06. Mr. Lucky [02:54]
07. Mustang Sally & GTO [04:42]
08. Ramblin' By Myself [03:22]
09. Louise [03:06]
10. Sugar Mama [03:16]
11. Leave My Wife Alone [02:48]
12. Stella Mae [03:02]
13. Peace Lovin' Man [03:53]
14. Hey Baby [03:29]
15. It Serves You Right To Suffer [05:11]
16. Think Twice Before You Go [02:05]
17. One Bourbon, One Scotch, One Beer [03:02]
18. I’m Bad Like Jesse James [05:34]
19. Walkin' The Boogie [02:44]
20. The Waterfront [05:21]

X Lossless Decoder version 20111015 (136.4)

XLD extraction logfile from 2011-11-06 11:53:24 +0200

John Lee Hooker / The World of Blues

Used drive : MATSHITA DVD-R UJ-898 (revision HC09)

Ripper mode : XLD Secure Ripper
Disable audio cache : OK for the drive with a cache less than 1375KiB
Make use of C2 pointers : NO
Read offset correction : 102
Max retry count : 100
Gap status : Analyzed, Appended

TOC of the extracted CD
Track | Start | Length | Start sector | End sector
––––––––––––––––––––––––––––-
1 | 00:00:00 | 02:42:11 | 0 | 12160
2 | 02:42:11 | 02:51:70 | 12161 | 25055
3 | 05:34:06 | 02:30:05 | 25056 | 36310
4 | 08:04:11 | 02:44:61 | 36311 | 48671
5 | 10:48:72 | 02:43:08 | 48672 | 60904
6 | 13:32:05 | 02:53:73 | 60905 | 73952
7 | 16:26:03 | 04:41:06 | 73953 | 95033
8 | 21:07:09 | 03:21:03 | 95034 | 110111
9 | 24:28:12 | 03:05:27 | 110112 | 124013
10 | 27:33:39 | 03:15:30 | 124014 | 138668
11 | 30:48:69 | 02:47:32 | 138669 | 151225
12 | 33:36:26 | 03:01:34 | 151226 | 164834
13 | 36:37:60 | 03:52:29 | 164835 | 182263
14 | 40:30:14 | 03:28:05 | 182264 | 197868
15 | 43:58:19 | 05:10:40 | 197869 | 221158
16 | 49:08:59 | 02:04:60 | 221159 | 230518
17 | 51:13:44 | 03:01:67 | 230519 | 244160
18 | 54:15:36 | 05:33:43 | 244161 | 269178
19 | 59:49:04 | 02:43:67 | 269179 | 281470
20 | 62:32:71 | 05:20:47 | 281471 | 305517

AccurateRip Summary
Disc not found in AccurateRip DB.

All Tracks
Filename : /Users/macuser/Desktop/The World Of Blues-John Lee Hooker(2004)/01 John Lee Hooker - The World of Blues.flac
Album gain : -4.41 dB
Peak : 0.969147
CRC32 hash (test run) : 2CC2BC7A
CRC32 hash : 2CC2BC7A
CRC32 hash (skip zero) : BEFF1708
Statistics
Read error : 0
Jitter error (maybe fixed) : 0
Retry sector count : 0
Damaged sector count : 0

Track 01
Pre-gap length : 00:02:00

Track gain : -7.16 dB
Peak : 0.969086
CRC32 hash (test run) : A7C179A9
CRC32 hash : A7C179A9
CRC32 hash (skip zero) : AFF9207C
AccurateRip signature : BC2FE372
->Track not present in AccurateRip database.
Statistics
Read error : 0
Jitter error (maybe fixed) : 0
Retry sector count : 0
Damaged sector count : 0

Track 02
Pre-gap length : 00:02:15

Track gain : -4.93 dB
Peak : 0.968903
CRC32 hash (test run) : 717EB236
CRC32 hash : 717EB236
CRC32 hash (skip zero) : 071891B0
AccurateRip signature : B14EB887
->Track not present in AccurateRip database.
Statistics
Read error : 0
Jitter error (maybe fixed) : 0
Retry sector count : 0
Damaged sector count : 0

Track 03
Pre-gap length : 00:02:15

Track gain : -0.87 dB
Peak : 0.907959
CRC32 hash (test run) : 22B45965
CRC32 hash : 22B45965
CRC32 hash (skip zero) : 17C59AC8
AccurateRip signature : CE735724
->Track not present in AccurateRip database.
Statistics
Read error : 0
Jitter error (maybe fixed) : 0
Retry sector count : 0
Damaged sector count : 0

Track 04
Pre-gap length : 00:02:15

Track gain : -1.48 dB
Peak : 0.909973
CRC32 hash (test run) : 93E37950
CRC32 hash : 93E37950
CRC32 hash (skip zero) : CA4882BA
AccurateRip signature : 3814A0C4
->Track not present in AccurateRip database.
Statistics
Read error : 0
Jitter error (maybe fixed) : 0
Retry sector count : 0
Damaged sector count : 0

Track 05
Pre-gap length : 00:02:15

Track gain : -4.13 dB
Peak : 0.776459
CRC32 hash (test run) : 33E7E886
CRC32 hash : 33E7E886
CRC32 hash (skip zero) : 01CAFE89
AccurateRip signature : 5FC1E5B8
->Track not present in AccurateRip database.
Statistics
Read error : 0
Jitter error (maybe fixed) : 0
Retry sector count : 0
Damaged sector count : 0

Track 06
Pre-gap length : 00:02:15

Track gain : -2.92 dB
Peak : 0.819366
CRC32 hash (test run) : D8D61CFE
CRC32 hash : D8D61CFE
CRC32 hash (skip zero) : B418B46D
AccurateRip signature : 2452EBD7
->Track not present in AccurateRip database.
Statistics
Read error : 0
Jitter error (maybe fixed) : 0
Retry sector count : 0
Damaged sector count : 0

Track 07
Pre-gap length : 00:02:15

Track gain : -5.81 dB
Peak : 0.902832
CRC32 hash (test run) : B7A6EC3B
CRC32 hash : B7A6EC3B
CRC32 hash (skip zero) : 03D60057
AccurateRip signature : CDED7612
->Track not present in AccurateRip database.
Statistics
Read error : 0
Jitter error (maybe fixed) : 0
Retry sector count : 0
Damaged sector count : 0

Track 08
Pre-gap length : 00:02:15

Track gain : -3.89 dB
Peak : 0.773590
CRC32 hash (test run) : 4E4039F3
CRC32 hash : 4E4039F3
CRC32 hash (skip zero) : 97770C09
AccurateRip signature : 9E574846
->Track not present in AccurateRip database.
Statistics
Read error : 0
Jitter error (maybe fixed) : 0
Retry sector count : 0
Damaged sector count : 0

Track 09
Pre-gap length : 00:02:15

Track gain : -4.80 dB
Peak : 0.852539
CRC32 hash (test run) : 16D32AB5
CRC32 hash : 16D32AB5
CRC32 hash (skip zero) : 6B95BCEE
AccurateRip signature : DCBC1C24
->Track not present in AccurateRip database.
Statistics
Read error : 0
Jitter error (maybe fixed) : 0
Retry sector count : 0
Damaged sector count : 0

Track 10
Pre-gap length : 00:02:15

Track gain : -3.44 dB
Peak : 0.723907
CRC32 hash (test run) : 120C0F68
CRC32 hash : 120C0F68
CRC32 hash (skip zero) : D5F99D65
AccurateRip signature : 846106FB
->Track not present in AccurateRip database.
Statistics
Read error : 0
Jitter error (maybe fixed) : 0
Retry sector count : 0
Damaged sector count : 0

Track 11
Pre-gap length : 00:02:15

Track gain : -1.76 dB
Peak : 0.795807
CRC32 hash (test run) : 147979B4
CRC32 hash : 147979B4
CRC32 hash (skip zero) : 164CA866
AccurateRip signature : 257E00F1
->Track not present in AccurateRip database.
Statistics
Read error : 0
Jitter error (maybe fixed) : 0
Retry sector count : 0
Damaged sector count : 0

Track 12
Pre-gap length : 00:02:15

Track gain : -5.32 dB
Peak : 0.969147
CRC32 hash (test run) : F16798DE
CRC32 hash : F16798DE
CRC32 hash (skip zero) : A62DAFA6
AccurateRip signature : A88B79FA
->Track not present in AccurateRip database.
Statistics
Read error : 0
Jitter error (maybe fixed) : 0
Retry sector count : 0
Damaged sector count : 0

Track 13
Pre-gap length : 00:02:15

Track gain : -6.10 dB
Peak : 0.969116
CRC32 hash (test run) : BC1DC455
CRC32 hash : BC1DC455
CRC32 hash (skip zero) : 998974D4
AccurateRip signature : 41DBEDF5
->Track not present in AccurateRip database.
Statistics
Read error : 0
Jitter error (maybe fixed) : 0
Retry sector count : 0
Damaged sector count : 0

Track 14
Pre-gap length : 00:02:15

Track gain : 0.10 dB
Peak : 0.780853
CRC32 hash (test run) : 694BACDC
CRC32 hash : 694BACDC
CRC32 hash (skip zero) : 0376BEBE
AccurateRip signature : 2B417784
->Track not present in AccurateRip database.
Statistics
Read error : 0
Jitter error (maybe fixed) : 0
Retry sector count : 0
Damaged sector count : 0

Track 15
Pre-gap length : 00:02:15

Track gain : 0.01 dB
Peak : 0.969086
CRC32 hash (test run) : E3DB03EE
CRC32 hash : E3DB03EE
CRC32 hash (skip zero) : 77A7DDE4
AccurateRip signature : 24C28B32
->Track not present in AccurateRip database.
Statistics
Read error : 0
Jitter error (maybe fixed) : 0
Retry sector count : 0
Damaged sector count : 0

Track 16
Pre-gap length : 00:02:15

Track gain : -3.70 dB
Peak : 0.877502
CRC32 hash (test run) : 909F7DA4
CRC32 hash : 909F7DA4
CRC32 hash (skip zero) : 1DCD7E90
AccurateRip signature : 3DF983E9
->Track not present in AccurateRip database.
Statistics
Read error : 0
Jitter error (maybe fixed) : 0
Retry sector count : 0
Damaged sector count : 0

Track 17
Pre-gap length : 00:02:15

Track gain : -4.59 dB
Peak : 0.969116
CRC32 hash (test run) : E1B236E7
CRC32 hash : E1B236E7
CRC32 hash (skip zero) : 5816AB9A
AccurateRip signature : 0465D77E
->Track not present in AccurateRip database.
Statistics
Read error : 0
Jitter error (maybe fixed) : 0
Retry sector count : 0
Damaged sector count : 0

Track 18
Pre-gap length : 00:02:15

Track gain : -3.57 dB
Peak : 0.969147
CRC32 hash (test run) : 761B22B2
CRC32 hash : 761B22B2
CRC32 hash (skip zero) : EECE9914
AccurateRip signature : A9B2C97B
->Track not present in AccurateRip database.
Statistics
Read error : 0
Jitter error (maybe fixed) : 0
Retry sector count : 0
Damaged sector count : 0

Track 19
Pre-gap length : 00:02:15

Track gain : -4.10 dB
Peak : 0.969086
CRC32 hash (test run) : 5D1DD7BD
CRC32 hash : 5D1DD7BD
CRC32 hash (skip zero) : BE0843B2
AccurateRip signature : C136BA00
->Track not present in AccurateRip database.
Statistics
Read error : 0
Jitter error (maybe fixed) : 0
Retry sector count : 0
Damaged sector count : 0

Track 20
Pre-gap length : 00:02:15

Track gain : 2.61 dB
Peak : 0.822174
CRC32 hash (test run) : 6EB4FFFC
CRC32 hash : 6EB4FFFC
CRC32 hash (skip zero) : 68854EC8
AccurateRip signature : 87759714
->Track not present in AccurateRip database.
Statistics
Read error : 0
Jitter error (maybe fixed) : 0
Retry sector count : 0
Damaged sector count : 0

No errors occurred

End of status report

foobar2000 1.2.6 / Dynamic Range Meter 1.1.1
log date: 2015-02-17 18:34:04

––––––––––––––––––––––––––––––––––––––––
Analyzed: John Lee Hooker / The World of Blues
––––––––––––––––––––––––––––––––––––––––

DR Peak RMS Duration Track
––––––––––––––––––––––––––––––––––––––––
DR10 -0.27 dB -12.65 dB 2:42 01-Boom Boom
DR11 -0.27 dB -12.71 dB 2:52 02-The Motor City Is Burning
DR14 -0.84 dB -20.52 dB 2:30 03-Baby Please Don’t Go
DR14 -0.82 dB -17.10 dB 2:45 04-I’m In The Mood
DR12 -2.20 dB -16.70 dB 2:43 05-High Priced Woman
DR10 -1.73 dB -14.56 dB 2:54 06-Mr. Lucky
DR9 -0.89 dB -12.20 dB 4:41 07-Mustang Sally & GTO
DR12 -2.23 dB -17.73 dB 3:21 08-Ramblin' By Myself
DR12 -1.39 dB -16.99 dB 3:05 09-Louise
DR14 -2.81 dB -19.46 dB 3:15 10-Sugar Mama
DR13 -1.98 dB -17.49 dB 2:47 11-Leave My Wife Alone
DR12 -0.27 dB -13.90 dB 3:01 12-Stella Mae
DR12 -0.27 dB -14.84 dB 3:52 13-Peace Lovin' Man
DR16 -2.15 dB -21.89 dB 3:28 14-Hey Baby
DR15 -0.27 dB -18.48 dB 5:11 15-It Serves You Right To Suffer
DR11 -1.14 dB -14.19 dB 2:05 16-Think Twice Before You Go
DR13 -0.27 dB -14.62 dB 3:02 17-One Bourbon, One Scotch, One Beer
DR12 -0.27 dB -13.55 dB 5:34 18-I’m Bad Like Jesse James
DR15 -0.27 dB -17.20 dB 2:44 19-Walkin' The Boogie
DR17 -1.70 dB -23.90 dB 5:21 20-The Waterfront
––––––––––––––––––––––––––––––––––––––––

Number of tracks: 20
Official DR value: DR13

Samplerate: 44100 Hz
Channels: 2
Bits per sample: 16
Bitrate: 611 kbps
Codec: FLAC
================================================================================

[CUETools log; Date: 17.02.2015 18:32:51; Version: 2.1.5]
[CTDB TOCID: asIFlAEMSMmw4epgCYRZarAjwKY-] found.
Track | CTDB Status
1 | (2/2) Accurately ripped
2 | (2/2) Accurately ripped
3 | (2/2) Accurately ripped
4 | (2/2) Accurately ripped
5 | (2/2) Accurately ripped
6 | (2/2) Accurately ripped
7 | (2/2) Accurately ripped
8 | (2/2) Accurately ripped
9 | (2/2) Accurately ripped
10 | (2/2) Accurately ripped
11 | (2/2) Accurately ripped
12 | (2/2) Accurately ripped
13 | (2/2) Accurately ripped
14 | (2/2) Accurately ripped
15 | (2/2) Accurately ripped
16 | (2/2) Accurately ripped
17 | (2/2) Accurately ripped
18 | (2/2) Accurately ripped
19 | (2/2) Accurately ripped
20 | (2/2) Accurately ripped
[AccurateRip ID: 002d5da0-02a52495-260fe914] found.
Track [ CRC | V2 ] Status
01 [bc2fe372|b320113f] (0+1/1) Accurately ripped
02 [b14eb887|d88d4c55] (0+1/1) Accurately ripped
03 [ce735724|4c23a90f] (0+1/1) Accurately ripped
04 [3814a0c4|c96e579f] (0+1/1) Accurately ripped
05 [5fc1e5b8|8cf47d68] (0+1/1) Accurately ripped
06 [2452ebd7|1715f100] (0+1/1) Accurately ripped
07 [cded7612|d4736f73] (0+1/1) Accurately ripped
08 [9e574846|c6992b94] (0+1/1) Accurately ripped
09 [dcbc1c24|a961687a] (0+1/1) Accurately ripped
10 [846106fb|6333a11b] (0+1/1) Accurately ripped
11 [257e00f1|4518d69d] (0+1/1) Accurately ripped
12 [a88b79fa|b07c1a9d] (0+1/1) Accurately ripped
13 [41dbedf5|1b45beeb] (0+1/1) Accurately ripped
14 [2b417784|be2d8645] (0+1/1) Accurately ripped
15 [24c28b32|ae808689] (0+1/1) Accurately ripped
16 [3df983e9|d7091c02] (0+1/1) Accurately ripped
17 [0465d77e|cf2727dc] (0+1/1) Accurately ripped
18 [a9b2c97b|b88deb0a] (0+1/1) Accurately ripped
19 [c136ba00|b6d578a6] (0+1/1) Accurately ripped
20 [87759714|8450b502] (0+1/1) Accurately ripped

Track Peak [ CRC32 ] [W/O NULL]
– 96,9 [2CC2BC7A] [BEFF1708]
01 96,9 [A7C179A9] [AFF9207C]
02 96,8 [717EB236] [071891B0]
03 90,7 [22B45965] [17C59AC8]
04 90,9 [93E37950] [CA4882BA]
05 77,6 [33E7E886] [01CAFE89]
06 81,9 [D8D61CFE] [B418B46D]
07 90,2 [B7A6EC3B] [03D60057]
08 77,3 [4E4039F3] [97770C09]
09 85,2 [16D32AB5] [6B95BCEE]
10 72,3 [120C0F68] [D5F99D65]
11 79,5 [147979B4] [164CA866]
12 96,9 [F16798DE] [A62DAFA6]
13 96,9 [BC1DC455] [998974D4]
14 78,0 [694BACDC] [0376BEBE]
15 96,9 [E3DB03EE] [77A7DDE4]
16 87,7 [909F7DA4] [1DCD7E90]
17 96,9 [E1B236E7] [5816AB9A]
18 96,9 [761B22B2] [EECE9914]
19 96,9 [5D1DD7BD] [BE0843B2]
20 82,2 [6EB4FFFC] [68854EC8]

John Lee Hooker - The World Of Blues (2004)

All thanks go to igaann

Visit my blog!

Download:
NitroFlare: FLAC | mp3

Uploadable: FLAC | mp3