Subcategories

John Lewis - Essence: John Lewis Plays the Compositions & Arrangements of Gary McFarland (1962) [Reissue 2012]

Posted By: gribovar
John Lewis - Essence: John Lewis Plays the Compositions & Arrangements of Gary McFarland (1962) [Reissue 2012]

John Lewis - Essence: John Lewis Plays the Compositions & Arrangements of Gary McFarland (1962) [Reissue 2012]
EAC Rip | FLAC (image+.cue+log) - 197 MB | MP3 CBR 320 kbps (LAME 3.93) - 78 MB | Covers - 26 MB
Genre: Jazz | RAR 3% Rec. | Label: Warner Music Japan (WPCR-27119)

Essence, released in 1962, allows space for improvising around the charts provided by vibraphonist Gary McFarland. Arranged by Lewis, it featuring an array of jazz greats including Eric Dolphy, Phil Woods, Freddie Hubbard, Benny Golson, Jimmy Giuffre, and Jim Hall.
Tracklist:
01. Hopeful Encounter
02. Tillamook Two
03. Night Float
04. Notions
05. Another Encounter
06. Wish Me Well

Total time: 33:14

Exact Audio Copy V1.0 beta 3 from 29. August 2011

EAC extraction logfile from 19. February 2013, 19:13

John Lewis / Essence

Used drive : ASUS DRW-24B1LT Adapter: 5 ID: 1

Read mode : Secure
Utilize accurate stream : Yes
Defeat audio cache : Yes
Make use of C2 pointers : No

Read offset correction : 6
Overread into Lead-In and Lead-Out : No
Fill up missing offset samples with silence : Yes
Delete leading and trailing silent blocks : No
Null samples used in CRC calculations : Yes
Used interface : Native Win32 interface for Win NT & 2000

Used output format : User Defined Encoder
Selected bitrate : 768 kBit/s
Quality : High
Add ID3 tag : No
Command line compressor : C:\Program Files\Exact Audio Copy\Flac\flac.exe
Additional command line options : -8 -V -T "ARTIST=%artist%" -T "TITLE=%title%" -T "ALBUM=%albumtitle%" -T "DATE=%year%" -T "TRACKNUMBER=%tracknr%" -T "TOTALTRACKS=%numtracks%" -T "GENRE=%genre%" -T "ALBUMARTIST=%albumartist%" -T "ALBUM ARTIST=%albumartist%" -T "COMMENT=EAC Secure Mode, Test & Copy, AccurateRip, FLAC -8" %source%


TOC of the extracted CD

Track | Start | Length | Start sector | End sector
––––––––––––––––––––––––––––-
1 | 0:00.00 | 4:41.37 | 0 | 21111
2 | 4:41.37 | 7:12.42 | 21112 | 53553
3 | 11:54.04 | 4:20.63 | 53554 | 73116
4 | 16:14.67 | 4:01.72 | 73117 | 91263
5 | 20:16.64 | 5:11.31 | 91264 | 114619
6 | 25:28.20 | 7:46.10 | 114620 | 149579


Range status and errors

Selected range

Filename F:\audio\John Lewis - Essence.wav

Peak level 100.0 %
Extraction speed 5.0 X
Range quality 100.0 %
Test CRC A75A1A96
Copy CRC A75A1A96
Copy OK

No errors occurred


AccurateRip summary

Track 1 not present in database
Track 2 not present in database
Track 3 not present in database
Track 4 not present in database
Track 5 not present in database
Track 6 not present in database

None of the tracks are present in the AccurateRip database

End of status report

–– CUETools DB Plugin V2.1.3

[CTDB TOCID: 43Oo5OVCC5AvfU1HshSB_xbQeNA-] disk not present in database, Submit result: 43Oo5OVCC5AvfU1HshSB_xbQeNA- has been uploaded


==== Log checksum 83EE7DDE2188B6F05EB29FBDF6E65120A91393A74BFE65D6929DC607DD93DC74 ====

[CUETools log; Date: 22.02.2018 18:59:32; Version: 2.1.4]
[CTDB TOCID: 43Oo5OVCC5AvfU1HshSB_xbQeNA-] found.
Track | CTDB Status
1 | (5/5) Accurately ripped
2 | (5/5) Accurately ripped
3 | (5/5) Accurately ripped
4 | (5/5) Accurately ripped
5 | (5/5) Accurately ripped
6 | (5/5) Accurately ripped
[AccurateRip ID: 0007adcf-0028fdf7-4807ca06] found.
Track [ CRC | V2 ] Status
01 [aa625c72|6483025a] (0+5/5) Accurately ripped
02 [a97ea7d6|1e429214] (0+5/5) Accurately ripped
03 [58e15058|c75830ca] (0+5/5) Accurately ripped
04 [94324700|12a47408] (0+5/5) Accurately ripped
05 [088463a1|090bfad4] (0+5/5) Accurately ripped
06 [d3e62f63|19278dbe] (0+5/5) Accurately ripped

Track Peak [ CRC32 ] [W/O NULL] [ LOG ]
– 100,0 [A75A1A96] [A2515E1E] CRC32
01 100,0 [0CD81EB4] [56DF7C98]
02 100,0 [5F07C288] [D990E456]
03 100,0 [1619CC31] [3E5AB852]
04 100,0 [48639E80] [4323F58A]
05 100,0 [203513F0] [3D948B3F]
06 100,0 [880D0B33] [017109C0]

Thanks to fiks22

See also:
John Lewis - Improvised Meditations & Excursions (1959) [Reissue 2012]
John Lewis - The Wonderful World of Jazz (1961) [Reissue 2012]
John Lewis & Svend Asmussen - European Encounter (1962) [Reissue 2013]