Tags
Language
Tags

John Williams, Wiener Philharmoniker, Anne-Sophie Mutter - John Williams in Vienna (2020) [BDRip]

Posted By: Vilboa
John Williams, Wiener Philharmoniker, Anne-Sophie Mutter - John Williams in Vienna (2020) [BDRip]

John Williams, Wiener Philharmoniker, Anne-Sophie Mutter - John Williams in Vienna (2020) [BDRip]
BluRay-rip | AVC | MKV 1920x1080 / 6215 kbps / 29,97 fps | 128 min | 6,96 Gb
Audio: DTS / 6ch / 48.0 KHz / 24 bits
Classical | Deutsche Grammophon | Sub.: German, English

DG presents John Williams in Vienna, the live recordings of the Hollywood legend's Vienna Philharmonic 2020 debut. Saying it's "one of the greatest honors of my life," he received a standing ovation before a single note was played. Sharing the stage with the famous orchestra and violinist Anne-Sophie Mutter, he performs iconic themes from Star Wars, Harry Potter, Indiana Jones, Jurassic Park and other cinematic landmarks that have earned countless awards: 5 Oscars, 5 Emmys.

Cast:
Anne-Sophie Mutter, violin
Wiener Philharmoniker
John Williams, conductor

Track List:
01. Flight to Neverland from Hook
02. Excerpts from Close Encounters of The Third Kind
03. Hedwig’s Theme from Harry Potter and the Sorcerer’s Stone
04. Theme from Sabrina
05. Donnybrook Fair from Far and Away
06. Devil’s Dance from The Witches of Eastwick
07. Adventures on Earth from E.T. The Extra-Terrestrial
08. Theme from Jurassic Park
09. Dartmoor, 1912 from War Horse
10. Out to Sea and The Shark Cage Fugue from Jaws
11. Marion’s Theme from Raiders of The Lost Ark
12. The Rebellion is Reborn from The Last Jedi
13. Luke & Leia from Return of the Jedi
14. Main Title from Star Wars
15. Nice to be Around from Cinderella Liberty
16. The Duel from The Adventures of Tintin
17. Remembrances from Schindler’s List
18. The Raiders March from Raiders of The Lost Ark
19. The Imperial March from The Empire Strikes Back


General
Unique ID : 207327470969457534811618500017516666320 (0x9BF9D186D181F23796578EE4EA335DD0)
Complete name : C:\JOHN WILLIAMS IN VIENNA.mkv
Format : Matroska
Format version : Version 2
File size : 6.96 GiB
Duration : 2h 8mn
Overall bit rate : 7 766 Kbps
Movie name : JOHN WILLIAMS IN VIENNA
Encoded date : UTC 2020-08-22 15:26:12
Writing application : DVDFab 9.1.6.8
Writing library : libebml v0.7.8 + libmatroska v0.8.1

Video
ID : 1
Format : AVC
Format/Info : Advanced Video Codec
Format profile : High@L4.1
Format settings, CABAC : Yes
Format settings, ReFrames : 2 frames
Codec ID : V_MPEG4/ISO/AVC
Duration : 2h 8mn
Bit rate : 6 215 Kbps
Width : 1 920 pixels
Height : 1 080 pixels
Display aspect ratio : 16:9
Frame rate mode : Constant
Frame rate : 29.970 fps
Color space : YUV
Chroma subsampling : 4:2:0
Bit depth : 8 bits
Scan type : Progressive
Bits/(Pixel*Frame) : 0.100
Stream size : 5.47 GiB (79%)
Writing library : x264 core 142
Encoding settings : cabac=1 / ref=1 / deblock=1:-1:-1 / analyse=0x3:0 / me=hex / subme=5 / psy=0 / mixed_ref=0 / me_range=16 / chroma_me=1 / trellis=0 / 8x8dct=1 / cqm=0 / deadzone=21,11 / fast_pskip=1 / chroma_qp_offset=0 / threads=8 / lookahead_threads=2 / sliced_threads=0 / nr=0 / decimate=1 / interlaced=0 / bluray_compat=0 / constrained_intra=0 / bframes=2 / b_pyramid=0 / b_adapt=1 / b_bias=0 / direct=1 / weightb=1 / open_gop=0 / weightp=0 / keyint=24 / keyint_min=13 / scenecut=40 / intra_refresh=0 / rc=abr / mbtree=0 / bitrate=6215 / ratetol=1.0 / qcomp=0.60 / qpmin=0 / qpmax=69 / qpstep=4 / ip_ratio=1.40 / pb_ratio=1.30 / aq=1:1.00
Default : Yes
Forced : No
Color primaries : BT.709
Transfer characteristics : BT.709
Matrix coefficients : BT.709
Color range : Limited

Audio
ID : 2
Format : DTS
Format/Info : Digital Theater Systems
Mode : 16
Format settings, Endianness : Big
Codec ID : A_DTS
Duration : 2h 8mn
Bit rate mode : Constant
Bit rate : 1 509 Kbps
Channel(s) : 6 channels
Channel positions : Front: L C R, Side: L R, LFE
Sampling rate : 48.0 KHz
Bit depth : 24 bits
Compression mode : Lossy
Stream size : 1.35 GiB (19%)
Language : English
Default : Yes
Forced : No

Text #1
ID : 3
Format : VobSub
Codec ID : S_VOBSUB
Codec ID/Info : The same subtitle format used on DVDs
Language : English
Default : Yes
Forced : No

Text #2
ID : 4
Format : VobSub
Codec ID : S_VOBSUB
Codec ID/Info : The same subtitle format used on DVDs
Language : German
Default : No
Forced : No

Menu
00:00:00.000 : en:Chapter 00
00:07:05.591 : en:Chapter 01
00:17:09.194 : en:Chapter 02
00:23:54.099 : en:Chapter 03
00:30:02.801 : en:Chapter 04
00:34:23.394 : en:Chapter 05
00:43:47.491 : en:Chapter 06
00:54:41.745 : en:Chapter 07
01:01:25.848 : en:Chapter 08
01:08:44.320 : en:Chapter 09
01:14:21.423 : en:Chapter 10
01:20:14.776 : en:Chapter 11
01:25:08.136 : en:Chapter 12
01:29:40.942 : en:Chapter 13
01:37:39.186 : en:Chapter 14
01:42:46.493 : en:Chapter 15
01:47:46.760 : en:Chapter 16
01:55:15.041 : en:Chapter 17
02:02:51.163 : en:Chapter 18

John Williams, Wiener Philharmoniker, Anne-Sophie Mutter - John Williams in Vienna (2020) [BDRip]