Subcategories
Tags
Language
Tags

Johnny Cash - Country Boy (2006)

Posted By: popsakov
Johnny Cash - Country Boy (2006)

Johnny Cash - Country Boy (2006)
EAC Rip | FLAC (Img) + Cue + Log ~ 177 Mb | MP3 CBR320 ~ 113 Mb
Full Scans | 00:39:49 | RAR 5% Recovery
Country, Traditional Country | Musical Memories / Rolled Gold #RGCD1069

Johnny Cash was one of the most imposing and influential figures in post-World War II country music. With his deep, resonant baritone and spare percussive guitar, he had a basic, distinctive sound. Cash didn't sound like Nashville, nor did he sound like honky tonk or rock & roll. He created his own subgenre, falling halfway between the blunt emotional honesty of folk, the rebelliousness of rock & roll, and the world-weariness of country. Cash's career coincided with the birth of rock & roll, and his rebellious attitude and simple, direct musical attack shared a lot of similarities with rock. However, there was a deep sense of history – as he would later illustrate with his series of historical albums – that kept him forever tied with country. And he was one of country music's biggest stars of the '50s and '60s, scoring well over 100 hit singles.

~ All Music

***************

Johnny Cash - Country Boy (2006)

Johnny Cash - Country Boy (2006)

Track List:

01. Get Rhythm [0:02:13.29]
02. Give My Love To Rose [0:02:39.36]
03. Country Boy [0:01:51.20]
04. Ballad of a Teenage Queen [0:02:10.11]
05. Goodbye Little Darlin [0:02:12.32]
06. Katty Too [0:01:57.39]
07. The Ways Of A Woman In Love [0:02:14.55]
08. Come In Stranger [0:01:39.33]
09. Luther Played The Boogie [0:02:03.42]
10. Mean-Eyed Cat [0:02:28.53]
11. Big River [0:02:29.44]
12. Wide Open Road [0:02:22.62]
13. Goodnight Irene [0:02:39.31]
14. Rock Island Line [0:02:09.48]
15. The Next In Line [0:02:43.34]
16. I Forgot To Remember To Forget [0:01:52.12]
17. Guess Things Happen That Way [0:01:48.11]
18. I Was There When It Happened [0:02:13.54]

Exact Audio Copy V1.1 from 23. June 2015

EAC extraction logfile from 24. May 2016, 21:38

Johnny Cash / Country Boy [RGCD1069]

Used drive : HL-DT-STBD-RE BH10LS38 Adapter: 1 ID: 1

Read mode : Secure
Utilize accurate stream : Yes
Defeat audio cache : Yes
Make use of C2 pointers : No

Read offset correction : 667
Overread into Lead-In and Lead-Out : No
Fill up missing offset samples with silence : Yes
Delete leading and trailing silent blocks : No
Null samples used in CRC calculations : Yes
Used interface : Installed external ASPI interface

Used output format : User Defined Encoder
Selected bitrate : 128 kBit/s
Quality : High
Add ID3 tag : No
Command line compressor : C:\Program Files (x86)\Exact Audio Copy\wavpack-4.60.1\wavpack.exe
Additional command line options : -hm -w "Year=%year%" -w "Genre=%genre%" %source% %dest%


TOC of the extracted CD

Track | Start | Length | Start sector | End sector
––––––––––––––––––––––––––––-
1 | 0:00.00 | 2:13.29 | 0 | 10003
2 | 2:13.29 | 2:39.36 | 10004 | 21964
3 | 4:52.65 | 1:51.20 | 21965 | 30309
4 | 6:44.10 | 2:10.11 | 30310 | 40070
5 | 8:54.21 | 2:12.32 | 40071 | 50002
6 | 11:06.53 | 1:57.39 | 50003 | 58816
7 | 13:04.17 | 2:14.55 | 58817 | 68921
8 | 15:18.72 | 1:39.33 | 68922 | 76379
9 | 16:58.30 | 2:03.42 | 76380 | 85646
10 | 19:01.72 | 2:28.53 | 85647 | 96799
11 | 21:30.50 | 2:29.44 | 96800 | 108018
12 | 24:00.19 | 2:22.62 | 108019 | 118730
13 | 26:23.06 | 2:39.31 | 118731 | 130686
14 | 29:02.37 | 2:09.48 | 130687 | 140409
15 | 31:12.10 | 2:43.34 | 140410 | 152668
16 | 33:55.44 | 1:52.12 | 152669 | 161080
17 | 35:47.56 | 1:48.11 | 161081 | 169191
18 | 37:35.67 | 2:13.54 | 169192 | 179220


Range status and errors

Selected range

Filename G:\Rips by Alder\Johnny Cash - Country Boy [RGCD1069].wav

Peak level 99.8 %
Extraction speed 6.9 X
Range quality 100.0 %
Test CRC 1FD5CE20
Copy CRC 1FD5CE20
Copy OK

No errors occurred


AccurateRip summary

Track 1 accurately ripped (confidence 2) [9F5D2E2B] (AR v2)
Track 2 accurately ripped (confidence 2) [C0AEB3FB] (AR v2)
Track 3 accurately ripped (confidence 2) [B3036126] (AR v2)
Track 4 accurately ripped (confidence 2) [1E89C5D6] (AR v2)
Track 5 accurately ripped (confidence 2) [AD5F4595] (AR v2)
Track 6 accurately ripped (confidence 2) [D83C00AD] (AR v2)
Track 7 accurately ripped (confidence 2) [24E4104E] (AR v2)
Track 8 accurately ripped (confidence 2) [7583F46A] (AR v2)
Track 9 accurately ripped (confidence 2) [CD7E4FFE] (AR v2)
Track 10 accurately ripped (confidence 2) [68E6584F] (AR v2)
Track 11 accurately ripped (confidence 2) [A9DFEAC9] (AR v2)
Track 12 accurately ripped (confidence 2) [9425BA0E] (AR v2)
Track 13 accurately ripped (confidence 2) [6DD53913] (AR v2)
Track 14 accurately ripped (confidence 2) [A22F3EF5] (AR v2)
Track 15 accurately ripped (confidence 2) [7C2E3C69] (AR v2)
Track 16 accurately ripped (confidence 2) [EA4A8642] (AR v2)
Track 17 accurately ripped (confidence 2) [C99F9414] (AR v2)
Track 18 accurately ripped (confidence 2) [00E2B843] (AR v2)

All tracks accurately ripped

End of status report

–– CUETools DB Plugin V2.1.6

[CTDB TOCID: 0mQxucI1OA3Ev13Q2.V0BT0kiPY-] found
Submit result: 0mQxucI1OA3Ev13Q2.V0BT0kiPY- has been confirmed
Track | CTDB Status
1 | (4/4) Accurately ripped
2 | (4/4) Accurately ripped
3 | (4/4) Accurately ripped
4 | (4/4) Accurately ripped
5 | (4/4) Accurately ripped
6 | (4/4) Accurately ripped
7 | (4/4) Accurately ripped
8 | (4/4) Accurately ripped
9 | (4/4) Accurately ripped
10 | (4/4) Accurately ripped
11 | (4/4) Accurately ripped
12 | (4/4) Accurately ripped
13 | (4/4) Accurately ripped
14 | (4/4) Accurately ripped
15 | (4/4) Accurately ripped
16 | (4/4) Accurately ripped
17 | (4/4) Accurately ripped
18 | (4/4) Accurately ripped


==== Log checksum 0B9852A71C42E218615557A1C5667594275377DF9DBBD0795277FF4EF5589D0E ====

Johnny Cash - Country Boy (2006)


All thanks go to Alder

>>> Johnny Cash in my Blog <<<

DOWNLOAD: