Subcategories

Johnny Burnette And The Rock 'N' Roll Trio - Johnny Burnette And The Rock 'N' Roll Trio (1956)

Posted By: uff
Johnny Burnette And The Rock 'N' Roll Trio - Johnny Burnette And The Rock 'N' Roll Trio (1956)

Johnny Burnette And The Rock 'N' Roll Trio - Johnny Burnette And The Rock 'N' Roll Trio (1956)
Rockabilly | 1cd | EAC Rip | Flac + Cue + Log | covers
MCA, MCD 30489 | rel: 1993 | 245Mb

Johnny Burnette and the Rock 'n Roll Trio is the 1956 debut album of the influential rockabilly band The Rock and Roll Trio, fronted by Johnny Burnette. Recorded over two separate sessions in 1956, the album includes a number of the band's singles. A number of the songs are regarded as classics of the rockabilly genre, particularly the trio-penned "Tear It Up", released on single on June 5, 1956, and their definitive cover of "Train Kept A'Rollin'". "Tear It Up" did not enter the charts, but enjoyed regional popularity and has subsequently been covered by a number of artists, including Charlie Feathers, Rod Stewart and Stray Cats. Even though the song was the band's first single on Coral, it was not originally included in the album, appearing on the CD rerelease.
Other singles, however, were, including their biggest seller, "Train Kept A'Rollin'". The Rough Guide Music USA indicates the band is best known for their rendition of this song. In Billy Poore's Rockabilly: A Forty-Year Journey, he describes the single "Train Kept A'Rollin'", backed with "Honey Hush", as "two of the best all-time rockabilly cuts ever", "what pure, scorching, unrestrained rockabilly music should sound like". Among its notable features, "Train Kept A'Rollin'" displayed a ground-breaking fuzzed guitar. This resulted from an accident, when a valve in the amplifier of the guitarist Paul Burlison came loose before a gig in Philadelphia. The distorted sound that resulted proved so popular that Burlison intentionally repeated it in future performance. ~Wikipedia

Track listing
01. Honey hush (2:01)
02. Lonesome train (2:02)
03. Sweet love on my mind (2:26)
04. Rock billy boogie (2:32)
05. Lonesome tears in my eyes (2:05)
06. All by myself (2:04)
07. The train kept a´ rollin´ (2:13)
08. I just found out (2:18)
09. Your baby blue eyes (2:09)
10. Chains of love (2:35)
11. I love you so (2:15)
12. Drinking wine, spo-dee-o-dee (2:11)
13. Rock therapy (2:36)
14. Blues stay away from me (2:12)
15. Eager beaver baby (2:01)
16. You´re undecided (1:57)
17. If you want it enough (2:06)
18. Please don´t leave me (2:15)
19. Touch me (2:23)
20. Tear it up (1:52)

Personnel
- Tony Austin – drums
- Paul Burlison – electric guitar
- Dorsey Burnette – bass fiddle
- Johnny Burnette – vocals, rhythm guitar
- Eddie Gray – drums
- Grady Martin – guitar


Exact Audio Copy V1.0 beta 2 from 29. April 2011

EAC extraction logfile from 21. August 2011, 15:38

Johnny Burnette And The Rock 'n' Roll Trio / Johnny Burnette And The Rock 'n' Roll Trio

Used drive : _NEC DVD_RW ND-3550A Adapter: 1 ID: 0

Read mode : Secure
Utilize accurate stream : Yes
Defeat audio cache : Yes
Make use of C2 pointers : No

Read offset correction : 48
Overread into Lead-In and Lead-Out : No
Fill up missing offset samples with silence : Yes
Delete leading and trailing silent blocks : No
Null samples used in CRC calculations : Yes
Used interface : Native Win32 interface for Win NT & 2000

Used output format : User Defined Encoder
Selected bitrate : 768 kBit/s
Quality : High
Add ID3 tag : No
Command line compressor : C:\Program Files\Exact Audio Copy\FLAC\FLAC.EXE
Additional command line options : -6 -V -T "ARTIST=%artist%" -T "TITLE=%title%" -T "ALBUM=%albumtitle%" -T "DATE=%year%" -T "TRACKNUMBER=%tracknr%" -T "GENRE=%genre%" -T "COMMENT=%comment%" -T "BAND=%albuminterpret%" -T "COMPOSER=%composer%" %haslyrics%–ta


TOC of the extracted CD

Track | Start | Length | Start sector | End sector
––––––––––––––––––––––––––––-
1 | 0:00.32 | 2:05.00 | 32 | 9406
2 | 2:05.32 | 2:05.53 | 9407 | 18834
3 | 4:11.10 | 2:30.42 | 18835 | 30126
4 | 6:41.52 | 2:36.08 | 30127 | 41834
5 | 9:17.60 | 2:08.37 | 41835 | 51471
6 | 11:26.22 | 2:07.58 | 51472 | 61054
7 | 13:34.05 | 2:17.12 | 61055 | 71341
8 | 15:51.17 | 2:22.18 | 71342 | 82009
9 | 18:13.35 | 2:12.60 | 82010 | 91969
10 | 20:26.20 | 2:38.55 | 91970 | 103874
11 | 23:05.00 | 2:18.25 | 103875 | 114249
12 | 25:23.25 | 2:15.15 | 114250 | 124389
13 | 27:38.40 | 2:39.35 | 124390 | 136349
14 | 30:18.00 | 2:15.62 | 136350 | 146536
15 | 32:33.62 | 2:04.53 | 146537 | 155889
16 | 34:38.40 | 2:01.25 | 155890 | 164989
17 | 36:39.65 | 2:10.32 | 164990 | 174771
18 | 38:50.22 | 2:19.00 | 174772 | 185196
19 | 41:09.22 | 2:27.20 | 185197 | 196241
20 | 43:36.42 | 1:52.20 | 196242 | 204661


Range status and errors

Selected range

Filename C:\FINISH\Johnny Burnette And The Rock 'n' Roll Trio - Johnny Burnette And The Rock 'n' Roll Trio (1993)\Johnny Burnette And The Rock 'n' Roll Trio - Johnny Burnette And The Rock 'n' Roll Trio.wav

Peak level 100.0 %
Extraction speed 4.6 X
Range quality 100.0 %
Test CRC B99A7872
Copy CRC B99A7872
Copy OK

No errors occurred


AccurateRip summary

Track 1 accurately ripped (confidence 4) [5A8690CF] (AR v1)
Track 2 accurately ripped (confidence 4) [A8E02068] (AR v1)
Track 3 accurately ripped (confidence 4) [87D62D6F] (AR v1)
Track 4 accurately ripped (confidence 4) [395E9F7C] (AR v1)
Track 5 accurately ripped (confidence 4) [FCB553CE] (AR v1)
Track 6 accurately ripped (confidence 4) [6CDBA683] (AR v1)
Track 7 accurately ripped (confidence 4) [C7296051] (AR v1)
Track 8 accurately ripped (confidence 4) [4C579DDA] (AR v1)
Track 9 accurately ripped (confidence 4) [4A89A628] (AR v1)
Track 10 accurately ripped (confidence 4) [7AAD279D] (AR v1)
Track 11 accurately ripped (confidence 4) [3BE8FEA7] (AR v1)
Track 12 accurately ripped (confidence 4) [12CC4DB5] (AR v1)
Track 13 accurately ripped (confidence 4) [A9C4368D] (AR v1)
Track 14 accurately ripped (confidence 4) [68B40389] (AR v1)
Track 15 accurately ripped (confidence 4) [AD817D76] (AR v1)
Track 16 accurately ripped (confidence 4) [EE868F67] (AR v1)
Track 17 accurately ripped (confidence 4) [75CC97A4] (AR v1)
Track 18 accurately ripped (confidence 4) [669B75B8] (AR v1)
Track 19 accurately ripped (confidence 4) [0D3C9977] (AR v1)
Track 20 accurately ripped (confidence 4) [D64FADC5] (AR v1)

All tracks accurately ripped

End of status report

==== Log checksum 8A89037E80494CC3C72C3CACB4BB29A25519BB7074BC2242907ED264C0C5D0AC ====



a[CUETools log; Date: 2016. 06. 06. 10:45:57; Version: 2.1.6]
Pregap length 00:00:32.
[CTDB TOCID: QLm0ctgTFsIEBBChRQHJDvrpHE0-] found.
Track | CTDB Status
1 | (4/4) Accurately ripped
2 | (4/4) Accurately ripped
3 | (4/4) Accurately ripped
4 | (4/4) Accurately ripped
5 | (4/4) Accurately ripped
6 | (4/4) Accurately ripped
7 | (4/4) Accurately ripped
8 | (4/4) Accurately ripped
9 | (4/4) Accurately ripped
10 | (4/4) Accurately ripped
11 | (4/4) Accurately ripped
12 | (4/4) Accurately ripped
13 | (4/4) Accurately ripped
14 | (4/4) Accurately ripped
15 | (4/4) Accurately ripped
16 | (4/4) Accurately ripped
17 | (4/4) Accurately ripped
18 | (4/4) Accurately ripped
19 | (4/4) Accurately ripped
20 | (4/4) Accurately ripped
[AccurateRip ID: 002109f8-01e522d6-070aa814] found.
Track [ CRC | V2 ] Status
01 [5a8690cf|9da68b4b] (06+04/10) Accurately ripped
02 [a8e02068|1bff439e] (06+04/10) Accurately ripped
03 [87d62d6f|b0d3a37f] (06+04/10) Accurately ripped
04 [395e9f7c|3ed07e64] (06+04/10) Accurately ripped
05 [fcb553ce|535d296d] (06+04/10) Accurately ripped
06 [6cdba683|5df982e0] (06+04/10) Accurately ripped
07 [c7296051|226245f6] (06+04/10) Accurately ripped
08 [4c579dda|36d38079] (06+04/10) Accurately ripped
09 [4a89a628|194b0e3e] (06+04/10) Accurately ripped
10 [7aad279d|f3ab8fa5] (06+04/10) Accurately ripped
11 [3be8fea7|97f7c4e8] (06+04/10) Accurately ripped
12 [12cc4db5|9142f9b7] (06+04/10) Accurately ripped
13 [a9c4368d|f2f68a1c] (06+04/10) Accurately ripped
14 [68b40389|11a68d9d] (06+04/10) Accurately ripped
15 [ad817d76|2502b8ab] (06+04/10) Accurately ripped
16 [ee868f67|681ee34c] (06+04/10) Accurately ripped
17 [75cc97a4|90f53be7] (06+04/10) Accurately ripped
18 [669b75b8|03262eca] (06+04/10) Accurately ripped
19 [0d3c9977|624f1e2f] (06+04/10) Accurately ripped
20 [d64fadc5|c2c9085b] (06+04/10) Accurately ripped

Track Peak [ CRC32 ] [W/O NULL] [ LOG ]
– 100,0 [B99A7872] [0F57BA09] CRC32
01 92,6 [DDB4C998] [EC198C9C]
02 80,2 [3B227A46] [D901491E]
03 96,8 [03D864B7] [8A589E14]
04 85,9 [E674C170] [1252F723]
05 87,6 [741879AF] [DE1B9962]
06 95,4 [D004F517] [5A1B803C]
07 78,9 [765D249E] [F78465EE]
08 90,6 [F70F93C9] [E7A3E5EB]
09 84,9 [2E58C0C0] [A8882AF3]
10 81,5 [95811FE7] [AEC6A0F3]
11 81,5 [6BC2E708] [83D6FA7C]
12 90,3 [3C9325B0] [5E6FEEEF]
13 77,3 [63F6AAAB] [3635B5B8]
14 85,0 [CE0A36C3] [D0F89352]
15 85,0 [DAE4AD6E] [AE856C11]
16 100,0 [D26C9109] [C0ACF42E]
17 87,0 [B684FAF1] [F067F477]
18 85,5 [42275CC8] [35BF064C]
19 100,0 [18CC9871] [FE722CED]
20 97,2 [B0260416] [D37ED73F]


Thx to audelas
Bigfile
Depositfiles

password: asd