Subcategories

Johnny Heartsman & Blues Company - Made In Germany (1995)

Posted By: Whiteshadow
Johnny  Heartsman & Blues Company - Made In Germany (1995)

Johnny Heartsman & Blues Company - Made In Germany (1995)
Eac Rip | FLAC, TRACKS+CUE, LOG | 441 MB | Complete Scans
Blues | Label: Inakustik | Catalog Number: INAK 1729-2 | RAR 3% Recovery | RS.com + Mirrors


The Blues Company, formed 1976, counts among the few creative monuments the Germany Blues scene ever produced.This follow up documents the class of the band surrounding frontman Todor Todorovic. Songs with depth, intelligent arrangements and sounds. The Blues has been called the most important truly American musical invention, and its definitely the most indigenous Afro-American art form. Over the years the blues has conquered the world, and has influenced musicians in all imaginable cultural environments. Germany is the second largest market for recorded music. Musicians such as John Lee Hooker and B.B. King have been acknowledged as giants in their field - and have been filling up large concert halls since the 1950s. Home grown talent is also widely accepted, and the BLUES COMPANY is the most popular German blues band, considering ticket and record sales. Their high-octane stage act and emotional delivery has earned them cult status among their many fans - not only in Germany! They are also constantely touring in Holland, Poland, France, Belgium, Yugoslavia, Hungary, Greece, the former GDR, Macedonia, Luxemburg, Cyprus, and Switzerland - more than 2.500 concerts so far!!

Exact Audio Copy V0.99 prebeta 5 from 4. May 2009

EAC extraction logfile from 17. November 2009, 15:49

Johnny Heartsman & Blues Company / Made In Germany

Used drive : HL-DT-STDVD-ROM DH16NS10 Adapter: 3 ID: 0

Read mode : Secure
Utilize accurate stream : Yes
Defeat audio cache : Yes
Make use of C2 pointers : No

Read offset correction : 102
Overread into Lead-In and Lead-Out : No
Fill up missing offset samples with silence : Yes
Delete leading and trailing silent blocks : No
Null samples used in CRC calculations : Yes
Used interface : Native Win32 interface for Win NT & 2000

Used output format : Internal WAV Routines
Sample format : 44.100 Hz; 16 Bit; Stereo


TOC of the extracted CD

Track | Start | Length | Start sector | End sector
––––––––––––––––––––––––––––-
1 | 0:00.00 | 1:17.62 | 0 | 5836
2 | 1:17.62 | 8:23.55 | 5837 | 43616
3 | 9:41.42 | 7:12.20 | 43617 | 76036
4 | 16:53.62 | 7:25.00 | 76037 | 109411
5 | 24:18.62 | 6:47.23 | 109412 | 139959
6 | 31:06.10 | 7:37.67 | 139960 | 174301
7 | 38:44.02 | 5:54.40 | 174302 | 200891
8 | 44:38.42 | 7:26.15 | 200892 | 234356
9 | 52:04.57 | 11:14.18 | 234357 | 284924


Range status and errors

Selected range

Filename X:\Releases RAW\Johnny Heartsman & Blues Company - Made In Germany\Johnny Heartsman & Blues Company - Made In Germany.wav

Peak level 99.0 %
Range quality 99.9 %
Test CRC FD8A6AF5
Copy CRC FD8A6AF5
Copy OK

No errors occurred


AccurateRip summary

Track 1 cannot be verified as accurate (confidence 2) [1E649D96], AccurateRip returned [F1686F57]
Track 2 cannot be verified as accurate (confidence 2) [9C6B7667], AccurateRip returned [BACDD9AF]
Track 3 cannot be verified as accurate (confidence 2) [DEBDE5F1], AccurateRip returned [1298BEE7]
Track 4 cannot be verified as accurate (confidence 2) [9898C5DA], AccurateRip returned [FCAD6CA5]
Track 5 cannot be verified as accurate (confidence 2) [B4402A84], AccurateRip returned [B907EFA5]
Track 6 cannot be verified as accurate (confidence 2) [2760719A], AccurateRip returned [E18257EB]
Track 7 cannot be verified as accurate (confidence 2) [EAEB61B6], AccurateRip returned [EDF04791]
Track 8 cannot be verified as accurate (confidence 2) [4DCF1839], AccurateRip returned [C41B058F]
Track 9 cannot be verified as accurate (confidence 2) [DDDD0820], AccurateRip returned [527CFE1A]

No tracks could be verified as accurate
You may have a different pressing from the one(s) in the database

End of status report


Tracks:
1. Intro
2. That 's allright
3. Flute juice
4. Cold cold feeling
5. I don't want no woman
6. Let me love you
7. Ain 't no sunshine
8. Sweet Frisco blues
9. Flip, flop & fly

THX to original uploader!


All Links Are Compatible

Password: blueslounge