Subcategories

Johnny Mathis & Natalie Cole - Unforgettable: A Tribute To Nat King Cole (1983)

Posted By: BlondStyle
Johnny Mathis & Natalie Cole - Unforgettable: A Tribute To Nat King Cole (1983)

Johnny Mathis & Natalie Cole - Unforgettable: A Tribute To Nat King Cole (1983)
Jazz, Vocal Pop, R&B | EAC Rip | FLAC, Img+CUE + LOG + Full Scans-600dpi (JPEG) | 44:06 Min | 279,16 Mb
Label: Columbia Records (Austria) | Released: 1993, January, 1
Johnny Mathis & Natalie Cole - Unforgettable: A Tribute To Nat King Cole (1983)

is a soundtrack album released in the UK in 1983 by the CBS Records division of Columbia in conjunction with the broadcast of American pop singer Johnny Mathis's BBC television concert special of the same name that featured Cole's daughter Natalie. The front of the original album jacket credits the concert performers as "Johnny Mathis and Natalie Cole", whereas the CD booklet reads, "Johnny Mathis with special guest Natalie Cole". It entered the UK album chart on September 17, 1983, and reached number five over the course of 16 weeks, and the following month, on October 31, the British Phonographic Industry awarded the album with Gold certification for sales of 100,000 units in the UK. In the liner notes on the original album sleeve Natalie Cole writes, "It was an honor to work with an artist of the stature of Johnny Mathis, one of the few artists in the world whom I feel can do justice to my father's music."


Performers:

Johnny Mathis – vocals
Natalie Cole – vocals ("The Christmas Song", "Dance, Ballerina, Dance", "Let There Be Love", " L-O-V-E", "Mona Lisa", "Ramblin' Rose", "Straighten Up and Fly Right", "When I Fall in Love")
Levine Andrade – strings
Michael Bach – bass
Kenny Baker – trumpet
Norris Bosworth – strings
Robin Firman – strings
John Franca – strings
Hans Geiger – strings
Bill Geldard – brass
John Graham – strings
Chris Green – strings
John Huckridge – brass
Maurice Isaacs – strings
Homi Kanga – strings
Gary Kettel – percussion
Bobby Lamb – trombone
Laurie Lewis – strings
Joe Lizama – drums
Eddie Mordue – saxophone
Thelma Owen – harp
Bill Reid – strings
Cyril Reuben – brass
George Robertson – strings
Gil Rogers – guitar
Jack Rothstein – strings (leader)
Celia Sheen – strings
Bill Skeat – brass
Wally Smith – brass
Hubert Staar – brass
Larry Steelman – keyboards
Derek Watkins – trumpet
John Willison – strings
Peter Willison – strings
Roy Willox – brass
Manny Winter – brass

Production:

Jim Ganduglia – musical director
Yvonne Littlewood – television producer
Len Shorey – television sound supervisor
Hugh Attwooll – mixer
Mike Ross – mixer
Rob O'Connor (Stylo Rouge) – sleeve design
Viv Mabon – illustration
David Vance – photographer
Mixed at CBS Studios, London


Johnny Mathis & Natalie Cole - Unforgettable: A Tribute To Nat King Cole (1983)


Johnny Mathis & Natalie Cole - Unforgettable: A Tribute To Nat King Cole (1983)


Release of the album: 1983, September [LP CBS, Cat.# [url="http://www.discogs.com/Johnny-Mathis-And-Natalie-Cole-Unforgettable-A-Tribute-To-Nat-King-Cole/release/2876049"]10042, USA]
Release of this CD: 1993, January, 1 [CD Columbia Records (Austria), Cat.# 469437 2 / EAN: 5099746943721]
℗ & © 1983 Sony Music Entertainment (UK) Ltd.
Columbia is the exclusive trademark of Sony Music Entertainment Inc.
Distribution Sony Music

Manufactured by Columbia Records/CBS Inc.

Design [Sleeve] – Rob O'Connor
Directed By [Musical Director] – Jim Ganduglia
Harp – Thelma Owen
Illustration – Viv Mabon
Mixed By – Hugh Attwooll, Mike Ross
Sleeve Notes – Johnny Mathis


Tracklist:

JOHNNY MATHIS:
01. Unforgettable / Sweet Lorraine (03:14)
(I. Gordon) / (M. Parish, C. Burwell)
02. Nature Boy (03:32)
(E. Ahbez)
03. Orange Coloured Sky (02:14)
(M. DeLugg, W. Stein)
04. Too Young (03:22)
(S. Dee, S. Lippman)
05. Medley: Route 66 / For Sentimental Reasons / Red Sails In The Sunset / Walkin' My Baby Back Home / It's Only A Paper Moon (05:52)
(B. Troup) / (D. Watson, W. Best) / (J. Kennedy, H. Williams) / (R. Turk, F. Ahlert) / (B. Rose, E.Y. Harburg, H. Arlen)
06. Stardust (03:27)
(M. Parish, H. Carmichael)
NATALIE COLE:
07. Unforgettable Medley: Straighten Up And Fly Right / Mona Lisa / L-O-V-E / Dance Ballerina Dance / Ramblin' Rose / The Christmas Song (06:34)
(N. Cole, I. Mills) / (Livingston & Evans) / (B. Kaempfert, M. Gabler) / (B. Russell, C. Sigman) / (N. Sherman, J. Sherman) / (M. Torme, R. Wells)
JOHNNY MATHIS:
08. To The Ends Of The Earth (02:29)
(N. Sherman, J. Sherman)
09. That Sunday (That Summer) (03:12)
(G.D. Weiss, J. Sherman)
JOHNNY MATHIS & NATALIE COLE:
10. Let There Be Love / When I Fall In Love (05:45)
(I. Grant, L. Rand) / (E. Heyman, V. Young)
JOHNNY MATHIS:
11. Unforgettable (04:15)
(I. Gordon)

Exact Audio Copy V1.0 beta 3 from 29. August 2011

EAC extraction logfile from 7. February 2015, 13:50

Johnny Mathis & Natalie Cole / Unforgettable - A Tribute To Nat King Cole

Used drive : ATAPI DVD DW 8X16X8X16 Adapter: 0 ID: 2

Read mode : Secure
Utilize accurate stream : Yes
Defeat audio cache : Yes
Make use of C2 pointers : No

Read offset correction : 618
Overread into Lead-In and Lead-Out : No
Fill up missing offset samples with silence : Yes
Delete leading and trailing silent blocks : No
Null samples used in CRC calculations : Yes
Used interface : Native Win32 interface for Win NT & 2000

Used output format : Internal WAV Routines
Sample format : 44.100 Hz; 16 Bit; Stereo


TOC of the extracted CD

Track | Start | Length | Start sector | End sector
––––––––––––––––––––––––––––-
1 | 0:00.00 | 3:13.57 | 0 | 14531
2 | 3:13.57 | 3:31.45 | 14532 | 30401
3 | 6:45.27 | 2:13.65 | 30402 | 40441
4 | 8:59.17 | 3:21.63 | 40442 | 55579
5 | 12:21.05 | 5:52.37 | 55580 | 82016
6 | 18:13.42 | 3:26.63 | 82017 | 97529
7 | 21:40.30 | 6:33.72 | 97530 | 127076
8 | 28:14.27 | 2:28.58 | 127077 | 138234
9 | 30:43.10 | 3:23.20 | 138235 | 153479
10 | 34:06.30 | 5:45.25 | 153480 | 179379
11 | 39:51.55 | 4:15.17 | 179380 | 198521


Range status and errors

Selected range

Filename C:\BlondStyle\Unforgettable - A Tribute To Nat King Cole.wav

Peak level 99.6 %
Extraction speed 7.9 X
Range quality 100.0 %
Test CRC 399FBF3B
Copy CRC 399FBF3B
Copy OK

No errors occurred


AccurateRip summary

Track 1 accurately ripped (confidence 1) [17412204] (AR v1)
Track 2 accurately ripped (confidence 1) [B27A7BCF] (AR v1)
Track 3 accurately ripped (confidence 1) [DDFFA805] (AR v1)
Track 4 accurately ripped (confidence 1) [EB6F3C7A] (AR v1)
Track 5 accurately ripped (confidence 1) [0F639299] (AR v1)
Track 6 accurately ripped (confidence 1) [ED0CA0C3] (AR v1)
Track 7 accurately ripped (confidence 1) [2F50AE91] (AR v1)
Track 8 accurately ripped (confidence 1) [F14F9406] (AR v1)
Track 9 accurately ripped (confidence 1) [79C3920D] (AR v1)
Track 10 accurately ripped (confidence 1) [CAE42090] (AR v1)
Track 11 accurately ripped (confidence 1) [C28AB251] (AR v1)

All tracks accurately ripped

End of status report

==== Log checksum 17F20BA978C8BFE2EB8A4675A1B7CC239BE9340734C3E8C1E4852B11FA53C5C1 ====

[Disc ID: 00110c0d-0096d81e-900a560b]
Track [ CRC ] Status
01 [17412204] (01/01) Accurately ripped as in pressing(s) #1
02 [b27a7bcf] (01/01) Accurately ripped as in pressing(s) #1
03 [ddffa805] (01/01) Accurately ripped as in pressing(s) #1
04 [eb6f3c7a] (01/01) Accurately ripped as in pressing(s) #1
05 [0f639299] (01/01) Accurately ripped as in pressing(s) #1
06 [ed0ca0c3] (01/01) Accurately ripped as in pressing(s) #1
07 [2f50ae91] (01/01) Accurately ripped as in pressing(s) #1
08 [f14f9406] (01/01) Accurately ripped as in pressing(s) #1
09 [79c3920d] (01/01) Accurately ripped as in pressing(s) #1
10 [cae42090] (01/01) Accurately ripped as in pressing(s) #1
11 [c28ab251] (01/01) Accurately ripped as in pressing(s) #1

–––––––––––––––––––––––-
Statistics for: Unforgettable - A Tribute To Nat King Cole.wav
Number of Samples: 116730936
–––––––––––––––––––––––-

left right

Peak value: -0.03 dB –- -0.37 dB
Avg RMS: -19.10 dB –- -19.44 dB
DR channel: 15.65 dB –- 15.64 dB
–––––––––––––––––––––––-

Official DR value: DR16
===============================================
Password: BlondStyle

Uploadable