Subcategories
Please register here if you want to download anything!

If domain in your address bar is different from the list below
PLEASE LEAVE THAT SITE IMMEDIATELY
❗IT'S A DANGEROUS FAKE❗



Spicy Magazines for Men! ;-)

Johnny Winter - Original Album Classics (2010) {5CD Box Set} RE-UP

Posted By: popsakov
Johnny Winter - Original Album Classics (2010) {5CD Box Set} RE-UP

Johnny Winter - Original Album Classics (2010) {5CD Box Set}
EAC Rip | WV (Img) + Cue + Log ~ 1,28 Gb | MP3 CBR320 ~ 518 Mb
Scans (PNG, 300 dpi) ~ 79 Mb | RAR 5% Recovery
Blues, Rock | Columbia / Legacy / Sony Music #88697656172

This box set contains 5 Johnny Winter's albums: Johnny Winter (1969), Second Winter (1969), Live (1971), Still Alive And Well (1973), Saints & Sinners (1974).
John Dawson "Johnny" Winter III (born February 23, 1944) is an American blues guitarist, singer, and producer. Best known for his late 1960s and 1970s high-energy blues-rock albums and live performances, Winter also produced three Grammy Award-winning albums for blues legend Muddy Waters. Since his time with Waters, Johnny Winter has recorded several Grammy-nominated blues albums and continues to tour extensively. In 1988, he was inducted into the Blues Foundation Hall of Fame and in 2003, he was ranked 63rd in Rolling Stone magazine's list of the "100 Greatest Guitarists of All Time".
Johnny Winter - Official Biography

Johnny Winter - Original Album Classics (2010):

Johnny Winter - Original Album Classics (2010) {5CD Box Set} RE-UP

CD 1: Johnny Winter - Johnny Winter (1969)

Johnny Winter - Original Album Classics (2010) {5CD Box Set} RE-UP

Track List:

01. I'm Yours And I'm Hers
02. Be Careful With A Fool
03. Dallas
04. Mean Mistreater
05. Leland Mississippi Blues
06. Good Morning Little School Girl
07. When You Got A Good Friend
08. I'll Drown In My Tears
09. Back Door Friend

Exact Audio Copy V0.99 prebeta 5 from 4. May 2009

EAC extraction logfile from 4. October 2010, 18:02

Johnny Winter / Johnny Winter

Used drive : HP DVD Writer 1060r Adapter: 1 ID: 0

Read mode : Secure
Utilize accurate stream : Yes
Defeat audio cache : Yes
Make use of C2 pointers : No

Read offset correction : 6
Overread into Lead-In and Lead-Out : No
Fill up missing offset samples with silence : Yes
Delete leading and trailing silent blocks : No
Null samples used in CRC calculations : Yes
Used interface : Installed external ASPI interface

Used output format : User Defined Encoder
Selected bitrate : 896 kBit/s
Quality : High
Add ID3 tag : No
Command line compressor : C:\Program Files\Exact Audio Copy\wavpack.exe
Additional command line options : -hlmx2 %s


TOC of the extracted CD

Track | Start | Length | Start sector | End sector
––––––––––––––––––––––––––––-
1 | 0:00.00 | 4:32.04 | 0 | 20403
2 | 4:32.04 | 5:16.51 | 20404 | 44154
3 | 9:48.55 | 2:49.03 | 44155 | 56832
4 | 12:37.58 | 3:55.12 | 56833 | 74469
5 | 16:32.70 | 3:30.38 | 74470 | 90257
6 | 20:03.33 | 2:46.05 | 90258 | 102712
7 | 22:49.38 | 3:42.19 | 102713 | 119381
8 | 26:31.57 | 4:46.43 | 119382 | 140874
9 | 31:18.25 | 2:56.45 | 140875 | 154119


Range status and errors

Selected range

Filename C:\PROGRAMMS\eMule-0[1].47a-FRTK-EvoStar-5.5-bin\eMule.0.47a.FRTK.EvoStar.v5.5_BIN\Incoming\Johnny Winter\CD1\Johnny Winter - Johnny Winter.wav

Peak level 99.9 %
Range quality 100.0 %
Test CRC 57939DE5
Copy CRC 57939DE5
Copy OK

No errors occurred


AccurateRip summary

Track 1 accurately ripped (confidence 17) [B9C724CF]
Track 2 accurately ripped (confidence 17) [B3B2E425]
Track 3 accurately ripped (confidence 17) [1B47B4BA]
Track 4 accurately ripped (confidence 17) [0FA274A4]
Track 5 accurately ripped (confidence 17) [95DD04E8]
Track 6 accurately ripped (confidence 17) [24D19F7B]
Track 7 accurately ripped (confidence 17) [865D2B59]
Track 8 accurately ripped (confidence 17) [CE7D9774]
Track 9 accurately ripped (confidence 17) [30DAB5C8]

All tracks accurately ripped

End of status report

foobar2000 1.2.3 / Dynamic Range Meter 1.1.1
log date: 2013-06-02 08:30:55

––––––––––––––––––––––––––––––––––––––––
Analyzed: Johnny Winter / Johnny Winter
––––––––––––––––––––––––––––––––––––––––

DR Peak RMS Duration Track
––––––––––––––––––––––––––––––––––––––––
DR11 -0.01 dB -12.01 dB 4:32 01-I'm Yours And I'm Hers
DR10 -0.15 dB -11.77 dB 5:17 02-Be Careful With A Fool
DR11 -0.85 dB -15.22 dB 2:49 03-Dallas
DR11 -0.01 dB -12.42 dB 3:55 04-Mean Mistreater
DR10 -0.27 dB -11.48 dB 3:31 05-Leland Mississippi Blues
DR10 -0.01 dB -11.13 dB 2:46 06-Good Morning Little School Girl
DR11 -0.19 dB -13.85 dB 3:42 07-When You Got A Good Friend
DR10 -0.01 dB -13.04 dB 4:47 08-I'll Drown In My Tears
DR10 -0.01 dB -11.78 dB 2:57 09-Back Door Friend
––––––––––––––––––––––––––––––––––––––––

Number of tracks: 9
Official DR value: DR11

Samplerate: 44100 Hz
Channels: 2
Bits per sample: 16
Bitrate: 817 kbps
Codec: WavPack
================================================================================

***************

Johnny Winter - Original Album Classics (2010) {5CD Box Set} RE-UP

CD 2: Johnny Winter - Second Winter (1969)

Johnny Winter - Original Album Classics (2010) {5CD Box Set} RE-UP

Track List:

01. Memory Pain
02. I'm Not Sure
03. The Good Love
04. Slippin' And Slidin'
05. Miss Ann
06. Johnny B. Goode
07. Highway 61 Revisited
08. I Love Everybody
09. Hustled Down In Texas
10. I Hate Everybody
11. Fast Life Rider

Exact Audio Copy V0.99 prebeta 5 from 4. May 2009

EAC extraction logfile from 4. October 2010, 19:34

Johnny Winter / Second Winter

Used drive : HP DVD Writer 1060r Adapter: 1 ID: 0

Read mode : Secure
Utilize accurate stream : Yes
Defeat audio cache : Yes
Make use of C2 pointers : No

Read offset correction : 6
Overread into Lead-In and Lead-Out : No
Fill up missing offset samples with silence : Yes
Delete leading and trailing silent blocks : No
Null samples used in CRC calculations : Yes
Used interface : Installed external ASPI interface

Used output format : User Defined Encoder
Selected bitrate : 896 kBit/s
Quality : High
Add ID3 tag : No
Command line compressor : C:\Program Files\Exact Audio Copy\wavpack.exe
Additional command line options : -hlmx2 %s


TOC of the extracted CD

Track | Start | Length | Start sector | End sector
––––––––––––––––––––––––––––-
1 | 0:00.00 | 5:33.42 | 0 | 25016
2 | 5:33.42 | 5:23.63 | 25017 | 49304
3 | 10:57.30 | 4:43.40 | 49305 | 70569
4 | 15:40.70 | 2:47.57 | 70570 | 83151
5 | 18:28.52 | 3:42.25 | 83152 | 99826
6 | 22:11.02 | 2:49.20 | 99827 | 112521
7 | 25:00.22 | 5:07.45 | 112522 | 135591
8 | 30:07.67 | 3:42.25 | 135592 | 152266
9 | 33:50.17 | 3:33.65 | 152267 | 168306
10 | 37:24.07 | 2:33.28 | 168307 | 179809
11 | 39:57.35 | 7:00.37 | 179810 | 211346


Range status and errors

Selected range

Filename C:\PROGRAMMS\eMule-0[1].47a-FRTK-EvoStar-5.5-bin\eMule.0.47a.FRTK.EvoStar.v5.5_BIN\Incoming\Johnny Winter\CD2\Johnny Winter - Second Winter.wav

Peak level 80.4 %
Range quality 100.0 %
Test CRC DB42EF22
Copy CRC DB42EF22
Copy OK

No errors occurred


AccurateRip summary

Track 1 accurately ripped (confidence 1) [94382FE7]
Track 2 accurately ripped (confidence 1) [6270BA09]
Track 3 accurately ripped (confidence 1) [21B372A6]
Track 4 accurately ripped (confidence 1) [C8953AFB]
Track 5 accurately ripped (confidence 1) [A07A3558]
Track 6 accurately ripped (confidence 1) [F73BC7A5]
Track 7 accurately ripped (confidence 1) [20F6E4DD]
Track 8 accurately ripped (confidence 1) [FF23F27D]
Track 9 accurately ripped (confidence 1) [06F53785]
Track 10 accurately ripped (confidence 1) [339B39EC]
Track 11 accurately ripped (confidence 1) [3294E3D0]

All tracks accurately ripped

End of status report

foobar2000 1.2.3 / Dynamic Range Meter 1.1.1
log date: 2013-06-05 22:03:59

––––––––––––––––––––––––––––––––––––––––
Analyzed: Johnny Winter / Second Winter
––––––––––––––––––––––––––––––––––––––––

DR Peak RMS Duration Track
––––––––––––––––––––––––––––––––––––––––
DR11 -2.43 dB -14.88 dB 5:34 01-Memory pain
DR10 -4.70 dB -16.77 dB 5:24 02-I'm not shure
DR12 -4.94 dB -19.06 dB 4:44 03-The good love
DR11 -3.90 dB -17.74 dB 2:48 04-Slippin' and slidin'
DR12 -4.30 dB -18.71 dB 3:42 05-Miss Ann
DR10 -5.08 dB -17.34 dB 2:49 06-Johnny B Goode
DR9 -3.14 dB -14.85 dB 5:08 07-Highway 61 Revisited
DR11 -1.89 dB -15.65 dB 3:42 08-I Love Everybody
DR12 -3.76 dB -17.42 dB 3:34 09-Hustled down in Texas
DR11 -3.24 dB -16.09 dB 2:33 10-I hate everybody
DR12 -3.36 dB -18.72 dB 7:00 11-Fast Life Rider
––––––––––––––––––––––––––––––––––––––––

Number of tracks: 11
Official DR value: DR11

Samplerate: 44100 Hz
Channels: 2
Bits per sample: 16
Bitrate: 766 kbps
Codec: WavPack
================================================================================

***************

Johnny Winter - Original Album Classics (2010) {5CD Box Set} RE-UP

CD 3: Johnny Winter - Live (1971)

Johnny Winter - Original Album Classics (2010) {5CD Box Set} RE-UP

Track List:

1. Good Morning Little School Girl
2. It's My Own Fault
3. Jumpin' Jack Flash
4. Rock & Roll Medley:
Great Balls of Fire,
Long Tall Sally,
Whole Lotta Shakin' Goin' On
5. Mean Town Blues
6. Johnny B. Goode

Exact Audio Copy V0.99 prebeta 5 from 4. May 2009

EAC extraction logfile from 4. October 2010, 16:49

Johnny Winter And / Live

Used drive : HP DVD Writer 1060r Adapter: 1 ID: 0

Read mode : Secure
Utilize accurate stream : Yes
Defeat audio cache : Yes
Make use of C2 pointers : No

Read offset correction : 6
Overread into Lead-In and Lead-Out : No
Fill up missing offset samples with silence : Yes
Delete leading and trailing silent blocks : No
Null samples used in CRC calculations : Yes
Used interface : Installed external ASPI interface

Used output format : User Defined Encoder
Selected bitrate : 896 kBit/s
Quality : High
Add ID3 tag : No
Command line compressor : C:\Program Files\Exact Audio Copy\wavpack.exe
Additional command line options : -hlmx2 %s


TOC of the extracted CD

Track | Start | Length | Start sector | End sector
––––––––––––––––––––––––––––-
1 | 0:00.00 | 4:34.65 | 0 | 20614
2 | 4:34.65 | 11:58.45 | 20615 | 74509
3 | 16:33.35 | 4:28.27 | 74510 | 94636
4 | 21:01.62 | 6:47.25 | 94637 | 125186
5 | 27:49.12 | 9:00.45 | 125187 | 165731
6 | 36:49.57 | 3:22.23 | 165732 | 180904


Range status and errors

Selected range

Filename C:\PROGRAMMS\eMule-0[1].47a-FRTK-EvoStar-5.5-bin\eMule.0.47a.FRTK.EvoStar.v5.5_BIN\Incoming\Johnny Winter\CD3\Johnny Winter And - Live.wav

Peak level 99.1 %
Range quality 100.0 %
Test CRC 7103B423
Copy CRC 7103B423
Copy OK

No errors occurred


AccurateRip summary

Track 1 accurately ripped (confidence 1) [91AD8728]
Track 2 accurately ripped (confidence 1) [15F36E4D]
Track 3 accurately ripped (confidence 1) [8792F7C1]
Track 4 accurately ripped (confidence 1) [D5C8A5BB]
Track 5 accurately ripped (confidence 1) [1A39BBD1]
Track 6 accurately ripped (confidence 1) [D611C3C8]

All tracks accurately ripped

End of status report

foobar2000 1.2.3 / Dynamic Range Meter 1.1.1
log date: 2013-06-06 22:16:53

––––––––––––––––––––––––––––––––––––––––
Analyzed: Johnny Winter And / Live
––––––––––––––––––––––––––––––––––––––––

DR Peak RMS Duration Track
––––––––––––––––––––––––––––––––––––––––
DR12 -0.08 dB -14.81 dB 4:35 01-Good Morning Little School Girl
DR12 -0.35 dB -15.37 dB 11:59 02-It's My Own Fault
DR11 -0.76 dB -13.02 dB 4:28 03-Jumpin' Jack Flash
DR11 -0.54 dB -13.82 dB 6:47 04-Rock and Roll Medley
DR12 -0.16 dB -14.38 dB 9:01 05-Mean Town Blues
DR10 -0.99 dB -13.54 dB 3:22 06-Johnny B. Goode
––––––––––––––––––––––––––––––––––––––––

Number of tracks: 6
Official DR value: DR11

Samplerate: 44100 Hz
Channels: 2
Bits per sample: 16
Bitrate: 855 kbps
Codec: WavPack
================================================================================

***************

Johnny Winter - Original Album Classics (2010) {5CD Box Set} RE-UP

CD 4: Johnny Winter - Still Alive And Well (1973)

Johnny Winter - Original Album Classics (2010) {5CD Box Set} RE-UP

Track List:

01. Rock Me Baby
02. Can't You Feel It
03. Cheap Tequila
04. All Tore Down
05. Rock & Roll
06. Silver Train
07. Ain't Nothing To Me
08. Still Alive And Well
09. Too Much Seconal
10. Let It Bleed
11. Lucillie [Bonus Track]
12. From A Buick Six [Bonus Track]

Exact Audio Copy V0.99 prebeta 5 from 4. May 2009

EAC extraction logfile from 4. October 2010, 20:56

Johnny Winter / Still Alive And Well

Used drive : HP DVD Writer 1060r Adapter: 1 ID: 0

Read mode : Secure
Utilize accurate stream : Yes
Defeat audio cache : Yes
Make use of C2 pointers : No

Read offset correction : 6
Overread into Lead-In and Lead-Out : No
Fill up missing offset samples with silence : Yes
Delete leading and trailing silent blocks : No
Null samples used in CRC calculations : Yes
Used interface : Installed external ASPI interface

Used output format : User Defined Encoder
Selected bitrate : 896 kBit/s
Quality : High
Add ID3 tag : No
Command line compressor : C:\Program Files\Exact Audio Copy\wavpack.exe
Additional command line options : -hlmx2 %s


TOC of the extracted CD

Track | Start | Length | Start sector | End sector
––––––––––––––––––––––––––––-
1 | 0:00.00 | 3:49.07 | 0 | 17181
2 | 3:49.07 | 3:01.15 | 17182 | 30771
3 | 6:50.22 | 4:04.65 | 30772 | 49136
4 | 10:55.12 | 4:31.65 | 49137 | 69526
5 | 15:27.02 | 4:44.68 | 69527 | 90894
6 | 20:11.70 | 3:34.42 | 90895 | 106986
7 | 23:46.37 | 3:05.43 | 106987 | 120904
8 | 26:52.05 | 3:43.62 | 120905 | 137691
9 | 30:35.67 | 4:22.00 | 137692 | 157341
10 | 34:57.67 | 4:11.05 | 157342 | 176171
11 | 39:08.72 | 2:45.25 | 176172 | 188571
12 | 41:54.22 | 2:38.38 | 188572 | 200459


Range status and errors

Selected range

Filename C:\PROGRAMMS\eMule-0[1].47a-FRTK-EvoStar-5.5-bin\eMule.0.47a.FRTK.EvoStar.v5.5_BIN\Incoming\Johnny Winter\CD4\Johnny Winter - Still Alive And Well.wav

Peak level 100.0 %
Range quality 99.9 %
Test CRC CA8C7DA7
Copy CRC CA8C7DA7
Copy OK

No errors occurred


AccurateRip summary

Track 1 accurately ripped (confidence 1) [86B92F48]
Track 2 accurately ripped (confidence 1) [30E48317]
Track 3 accurately ripped (confidence 1) [4DF8E150]
Track 4 accurately ripped (confidence 1) [F5B9762B]
Track 5 accurately ripped (confidence 1) [455392F2]
Track 6 accurately ripped (confidence 1) [21164F2F]
Track 7 accurately ripped (confidence 1) [0BAF5F9F]
Track 8 accurately ripped (confidence 1) [75353D6A]
Track 9 accurately ripped (confidence 1) [09ABA8BF]
Track 10 accurately ripped (confidence 1) [69E45E2B]
Track 11 accurately ripped (confidence 1) [96FBFFAF]
Track 12 accurately ripped (confidence 1) [F74676FE]

All tracks accurately ripped

End of status report

foobar2000 1.2.3 / Dynamic Range Meter 1.1.1
log date: 2013-06-06 22:15:59

––––––––––––––––––––––––––––––––––––––––
Analyzed: Johnny Winter / Still Alive And Well
––––––––––––––––––––––––––––––––––––––––

DR Peak RMS Duration Track
––––––––––––––––––––––––––––––––––––––––
DR11 -0.12 dB -12.82 dB 3:49 01-Rock Me Baby
DR12 -0.46 dB -13.44 dB 3:01 02-Can't You Feel It
DR11 0.00 dB -12.91 dB 4:05 03-Cheap Tequila
DR11 -0.38 dB -13.66 dB 4:32 04-All Tore Down
DR12 -0.20 dB -14.06 dB 4:45 05-Rock & Roll
DR10 0.00 dB -11.75 dB 3:35 06-Silver Train
DR12 0.00 dB -13.69 dB 3:06 07-Ain't Nothing To Me
DR11 0.00 dB -11.96 dB 3:44 08-Still Alive & Well
DR12 -0.03 dB -14.16 dB 4:22 09-Too Much Seconal
DR11 0.00 dB -12.79 dB 4:11 10-Let It Bleed
DR11 -0.40 dB -12.94 dB 2:45 11-Lucille (Bonus Track)
DR11 -0.40 dB -12.96 dB 2:39 12-From A Buick Six (Bonus Track)
––––––––––––––––––––––––––––––––––––––––

Number of tracks: 12
Official DR value: DR11

Samplerate: 44100 Hz
Channels: 2
Bits per sample: 16
Bitrate: 876 kbps
Codec: WavPack
================================================================================

***************

Johnny Winter - Original Album Classics (2010) {5CD Box Set} RE-UP

CD 5: Johnny Winter - Saints & Sinners (1974)

Johnny Winter - Original Album Classics (2010) {5CD Box Set} RE-UP

Track List:

01. Stone County
02. Blinded By Love
03. Thirty Days
04. Stray Cat Blues
05. Bad Luck Situation
06. Rollin' 'Cross The Country
07. Riot In Cell Block #9
08. Hurtin' So Bad
09. Bony Moronie
10. Feedback On Highway 101
11. Dirty [Bonus Track]

Exact Audio Copy V0.99 prebeta 5 from 4. May 2009

EAC extraction logfile from 4. October 2010, 22:29

Johnny Winter / Saints & Sinners

Used drive : HP DVD Writer 1060r Adapter: 1 ID: 0

Read mode : Secure
Utilize accurate stream : Yes
Defeat audio cache : Yes
Make use of C2 pointers : No

Read offset correction : 6
Overread into Lead-In and Lead-Out : No
Fill up missing offset samples with silence : Yes
Delete leading and trailing silent blocks : No
Null samples used in CRC calculations : Yes
Used interface : Installed external ASPI interface

Used output format : User Defined Encoder
Selected bitrate : 896 kBit/s
Quality : High
Add ID3 tag : No
Command line compressor : C:\Program Files\Exact Audio Copy\wavpack.exe
Additional command line options : -hlmx2 %s


TOC of the extracted CD

Track | Start | Length | Start sector | End sector
––––––––––––––––––––––––––––-
1 | 0:00.00 | 3:35.57 | 0 | 16181
2 | 3:35.57 | 4:29.38 | 16182 | 36394
3 | 8:05.20 | 3:02.47 | 36395 | 50091
4 | 11:07.67 | 4:18.08 | 50092 | 69449
5 | 15:26.00 | 2:50.17 | 69450 | 82216
6 | 18:16.17 | 4:35.00 | 82217 | 102841
7 | 22:51.17 | 3:11.60 | 102842 | 117226
8 | 26:03.02 | 4:40.55 | 117227 | 138281
9 | 30:43.57 | 2:39.03 | 138282 | 150209
10 | 33:22.60 | 4:25.55 | 150210 | 170139
11 | 37:48.40 | 4:00.30 | 170140 | 188169


Range status and errors

Selected range

Filename C:\PROGRAMMS\eMule-0[1].47a-FRTK-EvoStar-5.5-bin\eMule.0.47a.FRTK.EvoStar.v5.5_BIN\Incoming\Johnny Winter\CD5\Johnny Winter - Saints & Sinners.wav

Peak level 99.6 %
Range quality 100.0 %
Test CRC 2F0E3FF6
Copy CRC 2F0E3FF6
Copy OK

No errors occurred


AccurateRip summary

Track 1 accurately ripped (confidence 1) [4572E06A]
Track 2 accurately ripped (confidence 1) [10A61AE4]
Track 3 accurately ripped (confidence 1) [7538AC7A]
Track 4 accurately ripped (confidence 1) [62D47967]
Track 5 accurately ripped (confidence 1) [AB29B4BD]
Track 6 accurately ripped (confidence 1) [07D824F2]
Track 7 accurately ripped (confidence 1) [CB5284AA]
Track 8 accurately ripped (confidence 1) [0CAFBA1C]
Track 9 accurately ripped (confidence 1) [9396E4C5]
Track 10 accurately ripped (confidence 1) [11AACE6A]
Track 11 accurately ripped (confidence 1) [8124EA6F]

All tracks accurately ripped

End of status report

foobar2000 1.2.3 / Dynamic Range Meter 1.1.1
log date: 2013-06-06 22:17:47

––––––––––––––––––––––––––––––––––––––––
Analyzed: Johnny Winter / Saints & Sinners
––––––––––––––––––––––––––––––––––––––––

DR Peak RMS Duration Track
––––––––––––––––––––––––––––––––––––––––
DR11 -0.28 dB -13.65 dB 3:36 01-Stone County
DR12 -0.03 dB -14.08 dB 4:30 02-Blinded By Love
DR12 -1.85 dB -16.08 dB 3:03 03-Thirty Days
DR11 -1.76 dB -15.22 dB 4:18 04-Stray Cat Blues
DR11 -0.74 dB -14.11 dB 2:50 05-Bad Luck Situation
DR11 -0.79 dB -14.56 dB 4:35 06-Rollin' 'Cross The Country
DR12 -2.12 dB -16.15 dB 3:12 07-Riot In Cell Block #9
DR11 -1.44 dB -15.46 dB 4:41 08-Hurtin' So Bad
DR11 -0.68 dB -13.35 dB 2:39 09-Bony Moronie
DR12 -1.34 dB -15.10 dB 4:26 10-Feedback On Highway 101
DR13 -1.64 dB -16.95 dB 4:00 11-Dirty (Previously Unreleased Track)
––––––––––––––––––––––––––––––––––––––––

Number of tracks: 11
Official DR value: DR12

Samplerate: 44100 Hz
Channels: 2
Bits per sample: 16
Bitrate: 825 kbps
Codec: WavPack
================================================================================

Johnny Winter - Original Album Classics (2010) {5CD Box Set} RE-UP

All thanks go to forreg1973 and the original ripper taurus66

Visit my blog!

Download: