Tags
Language
Tags

John's Children - A Strange Affair (The Sixties Recordings) [1966-1970] (2013)

Posted By: gribovar
John's Children - A Strange Affair (The Sixties Recordings) [1966-1970] (2013)

John's Children - A Strange Affair (The Sixties Recordings) [1966-1970] (2013)
EAC Rip | FLAC (tracks+.cue+log) - 787 MB | MP3 CBR 320 kbps (LAME 3.93) - 348 MB | Covers (10 MB) included
Genre: Psychedelic Rock | RAR 3% Rec. | Label: Cherry Red Records (CRSEG027D)

John’s Children were the quintessential cult 60s Mod/Psych band, controversial, sharply dressed and subsequently the stuff of legend. The band were fronted by Andy Ellison (later with Jet and Radio Stars) and boasted Marc Bolan within their ranks during their short life. "A Strange Affair" - for the first time - boasts the entire John’s Children output between 1966 and 1970.
The package includes: Two singles for EMI’s Columbia label: ‘The Love I Thought I’d Found’ and ‘Just What You Want - Just What You Get’. Four singles for The Who’s label Track Records: ‘Desdemona’, the legendarily withdrawn ‘Midsummer Night's Scene’, ‘Come And Play With Me In The Garden’ and ‘Go-Go Girl’. Their mock-live album Orgasm! which was belatedly issued on US label White Whale in 1970. * Andy Ellison’s subsequent solo singles ‘It's Been A Long Time’ (Track), ‘Fool From Upper Eden’ (CBS) and ‘You Can't Do That’ (SNB). Three tracks by pre-John’s Children band The Silence. A raft of rare and previously unissued alternative versions and mixes.
The 2-CD set has been compiled with help from Andy Ellison. Their manager Simon Napier-Bell will also be contributing to the detailed sleeve-notes, which are based around excerpts from Ellison’s yet-to-be-published autobiography.
CD 1 Tracklist (Singles & Rarities):
01. The Love I Thought I'd Found
02. Strange Affair
03. Just What You Want - Just What You'll Get
04. But She's Mine
05. Desdemona
06. Remember Thomas À Becket
07. Midsummer Night's Scene
08. Sara, Crazy Child
09. Come And Play With Me In The Garden
10. Go-Go Girl
11. Jagged Time Lapse
12. Arthur Green (Credited to Andy Ellison)
13. It's Been A Long Time (Andy Ellison solo)
14. Fool From Upper Eden (Andy Ellison solo)
15. Another Lucky Lie (Andy Ellison solo)
16. You Can't Do That (Andy Ellison solo)
17. Cornflake Zoo (Andy Ellison solo)
18. Help! (Andy Ellison solo)
19. Casbah Candy (Andy Ellison solo)
20. Hippy Gumbo (Andy Ellison solo)
21. Down Down (By The Silence)
22. Cold On Me (By The Silence)
23. Forgive Me If I'm Wrong (By The Silence)
24. Mustang Ford
25. Not The Sort Of Girl You Take To Bed
26. Sally Was An Angel (Vocal)

Total time: 01:08:19

CD 2 Tracklist (Orgasm & Bonus tracks):
01. Killer Ben
02. Jagged Time Lapse
03. Smashed! Blocked!
04. You're A Nothing
05. Not The Sort Of Girl
06. Cold On Me
07. Leave Me Alone
08. Let Me Know
09. Just What You Want - Just What You'll Get
10. Why Do You Lie

Bonus tracks:
11. Strange Affair (Alternate Mix)
12. But She's Mine (Alternate Mix)
13. The Love I Thought I'd Found (First Version)
14. Desdemona ("Why Do You Have To Lie" Version)
15. Remember Thomas À Becket (Alternate Version)
16. Midsummer Night's Scene (Alternate Version)
17. Sara, Crazy Child (German Single Version)
18. Jagged Time Lapse (Alternate Version)
19. It's Been A Long Time (Andy Ellison solo, Stereo Mix)
20. You Can't Do That (Acetate Version, Andy Ellison)
21. Hippy Gumbo (Marc Bolan Vocal)
22. Not The Sort Of Girl You Take To Bed (Alternate Version)
23. Sally Was An Angel (Instrumental)
24. Come And Play With Me In The Garden (Instrumental)
25. The Perfumed Garden Of Gulliver Smith (Instrumental)
26. Midsummer Night's Scene (Alternate Mix)

Total time: 01:14:53

Exact Audio Copy V1.0 beta 3 from 29. August 2011

EAC extraction logfile from 20. October 2014, 17:48

John's Children / A Strange Affair 1/2

Used drive : HL-DT-STBD-RE WH12LS30 Adapter: 3 ID: 0

Read mode : Secure
Utilize accurate stream : Yes
Defeat audio cache : Yes
Make use of C2 pointers : No

Read offset correction : 667
Overread into Lead-In and Lead-Out : No
Fill up missing offset samples with silence : Yes
Delete leading and trailing silent blocks : No
Null samples used in CRC calculations : Yes
Used interface : Native Win32 interface for Win NT & 2000
Gap handling : Appended to previous track

Used output format : User Defined Encoder
Selected bitrate : 1024 kBit/s
Quality : High
Add ID3 tag : No
Command line compressor : C:\Program Files (x86)\Exact Audio Copy\FLAC\FLAC.EXE
Additional command line options : -6 -V -T "ARTIST=%artist%" -T "TITLE=%title%" -T "ALBUM=%albumtitle%" -T "DATE=%year%" -T "TRACKNUMBER=%tracknr%" -T "GENRE=%genre%" -T "COMMENT=%comment%" -T "BAND=%albuminterpret%" -T "ALBUMARTIST=%albuminterpret%" -T "COMPOSER=%composer%" %haslyrics%–tag-from-file=LYRICS="%lyricsfile%"%haslyrics% -T "DISCNUMBER=%cdnumber%" -T "TOTALDISCS=%totalcds%" -T "TOTALTRACKS=%numtracks%" %hascover%–picture="%coverfile%"%hascover% %source% -o %dest%


TOC of the extracted CD

Track | Start | Length | Start sector | End sector
––––––––––––––––––––––––––––-
1 | 0:00.00 | 3:01.25 | 0 | 13599
2 | 3:01.25 | 2:05.69 | 13600 | 23043
3 | 5:07.19 | 3:00.71 | 23044 | 36614
4 | 8:08.15 | 1:58.47 | 36615 | 45511
5 | 10:06.62 | 2:24.22 | 45512 | 56333
6 | 12:31.09 | 2:19.54 | 56334 | 66812
7 | 14:50.63 | 2:34.41 | 66813 | 78403
8 | 17:25.29 | 2:04.23 | 78404 | 87726
9 | 19:29.52 | 2:17.33 | 87727 | 98034
10 | 21:47.10 | 2:09.19 | 98035 | 107728
11 | 23:56.29 | 2:46.55 | 107729 | 120233
12 | 26:43.09 | 3:42.29 | 120234 | 136912
13 | 30:25.38 | 3:20.50 | 136913 | 151962
14 | 33:46.13 | 2:54.19 | 151963 | 165031
15 | 36:40.32 | 1:56.44 | 165032 | 173775
16 | 38:37.01 | 2:48.04 | 173776 | 186379
17 | 41:25.05 | 2:02.70 | 186380 | 195599
18 | 43:28.00 | 2:28.47 | 195600 | 206746
19 | 45:56.47 | 2:01.65 | 206747 | 215886
20 | 47:58.37 | 2:08.31 | 215887 | 225517
21 | 50:06.68 | 2:59.66 | 225518 | 239008
22 | 53:06.59 | 3:03.39 | 239009 | 252772
23 | 56:10.23 | 4:05.72 | 252773 | 271219
24 | 60:16.20 | 2:23.69 | 271220 | 282013
25 | 62:40.14 | 2:27.30 | 282014 | 293068
26 | 65:07.44 | 3:10.72 | 293069 | 307390


Track 1

Filename C:\Users\Smoky\Desktop\What.CD Projects\John's Children - A Strange Affair (2013) 2CD [FLAC]\CD1\01 - John's Children - The Love I Thought I'd Found.wav

Pre-gap length 0:00:02.00

Peak level 96.6 %
Extraction speed 1.0 X
Track quality 100.0 %
Test CRC E3258D1F
Copy CRC E3258D1F
Accurately ripped (confidence 1) [36E46B60] (AR v2)
Copy OK

Track 2

Filename C:\Users\Smoky\Desktop\What.CD Projects\John's Children - A Strange Affair (2013) 2CD [FLAC]\CD1\02 - John's Children - Strange Affair.wav

Pre-gap length 0:00:00.81

Peak level 96.6 %
Extraction speed 1.0 X
Track quality 100.0 %
Test CRC B7BEEFA0
Copy CRC B7BEEFA0
Accurately ripped (confidence 1) [B0A0DAA7] (AR v2)
Copy OK

Track 3

Filename C:\Users\Smoky\Desktop\What.CD Projects\John's Children - A Strange Affair (2013) 2CD [FLAC]\CD1\03 - John's Children - Just What You Want - Just What You'll Get.wav

Pre-gap length 0:00:01.29

Peak level 96.6 %
Extraction speed 1.0 X
Track quality 99.9 %
Test CRC 1D9F2D01
Copy CRC 1D9F2D01
Accurately ripped (confidence 1) [D60CEFCA] (AR v2)
Copy OK

Track 4

Filename C:\Users\Smoky\Desktop\What.CD Projects\John's Children - A Strange Affair (2013) 2CD [FLAC]\CD1\04 - John's Children - But She's Mine.wav

Pre-gap length 0:00:02.48

Peak level 96.6 %
Extraction speed 1.1 X
Track quality 100.0 %
Test CRC D0DC2049
Copy CRC D0DC2049
Accurately ripped (confidence 1) [461DF29B] (AR v2)
Copy OK

Track 5

Filename C:\Users\Smoky\Desktop\What.CD Projects\John's Children - A Strange Affair (2013) 2CD [FLAC]\CD1\05 - John's Children - Desdemona.wav

Pre-gap length 0:00:01.29

Peak level 100.0 %
Extraction speed 1.2 X
Track quality 100.0 %
Test CRC F4D228A5
Copy CRC F4D228A5
Accurately ripped (confidence 1) [2D61AD18] (AR v2)
Copy OK

Track 6

Filename C:\Users\Smoky\Desktop\What.CD Projects\John's Children - A Strange Affair (2013) 2CD [FLAC]\CD1\06 - John's Children - Remember Thomas À Becket.wav

Pre-gap length 0:00:01.30

Peak level 96.6 %
Extraction speed 1.2 X
Track quality 100.0 %
Test CRC 5F8E63C7
Copy CRC 5F8E63C7
Accurately ripped (confidence 1) [1C08D4A0] (AR v2)
Copy OK

Track 7

Filename C:\Users\Smoky\Desktop\What.CD Projects\John's Children - A Strange Affair (2013) 2CD [FLAC]\CD1\07 - John's Children - Midsummer Night's Scene.wav

Pre-gap length 0:00:00.65

Peak level 96.6 %
Extraction speed 1.3 X
Track quality 100.0 %
Test CRC C519E257
Copy CRC C519E257
Accurately ripped (confidence 1) [396E2DC8] (AR v2)
Copy OK

Track 8

Filename C:\Users\Smoky\Desktop\What.CD Projects\John's Children - A Strange Affair (2013) 2CD [FLAC]\CD1\08 - John's Children - Sara, Crazy Child.wav

Pre-gap length 0:00:01.25

Peak level 96.6 %
Extraction speed 1.3 X
Track quality 100.0 %
Test CRC 5B5C1620
Copy CRC 5B5C1620
Accurately ripped (confidence 1) [197295EB] (AR v2)
Copy OK

Track 9

Filename C:\Users\Smoky\Desktop\What.CD Projects\John's Children - A Strange Affair (2013) 2CD [FLAC]\CD1\09 - John's Children - Come And Play With Me In The Garden.wav

Pre-gap length 0:00:01.26

Peak level 96.6 %
Extraction speed 1.1 X
Track quality 99.9 %
Test CRC DBFA150C
Copy CRC DBFA150C
Accurately ripped (confidence 1) [036251D8] (AR v2)
Copy OK

Track 10

Filename C:\Users\Smoky\Desktop\What.CD Projects\John's Children - A Strange Affair (2013) 2CD [FLAC]\CD1\10 - John's Children - Go-Go Girl.wav

Pre-gap length 0:00:01.64

Peak level 96.6 %
Extraction speed 1.4 X
Track quality 100.0 %
Test CRC F8B99CD6
Copy CRC F8B99CD6
Accurately ripped (confidence 1) [A1048E3F] (AR v2)
Copy OK

Track 11

Filename C:\Users\Smoky\Desktop\What.CD Projects\John's Children - A Strange Affair (2013) 2CD [FLAC]\CD1\11 - John's Children - Jagged Time Lapse.wav

Pre-gap length 0:00:01.78

Peak level 96.6 %
Extraction speed 1.5 X
Track quality 100.0 %
Test CRC B8BBF866
Copy CRC B8BBF866
Accurately ripped (confidence 1) [950AE074] (AR v2)
Copy OK

Track 12

Filename C:\Users\Smoky\Desktop\What.CD Projects\John's Children - A Strange Affair (2013) 2CD [FLAC]\CD1\12 - Andy Ellison - Arthur Green.wav

Pre-gap length 0:00:01.25

Peak level 96.6 %
Extraction speed 1.7 X
Track quality 100.0 %
Test CRC E3176BFD
Copy CRC E3176BFD
Accurately ripped (confidence 1) [91D650BC] (AR v2)
Copy OK

Track 13

Filename C:\Users\Smoky\Desktop\What.CD Projects\John's Children - A Strange Affair (2013) 2CD [FLAC]\CD1\13 - Andy Ellison - It's Been A Long Time.wav

Pre-gap length 0:00:00.69

Peak level 96.6 %
Extraction speed 1.7 X
Track quality 100.0 %
Test CRC CEEB62DE
Copy CRC CEEB62DE
Accurately ripped (confidence 1) [679C3934] (AR v2)
Copy OK

Track 14

Filename C:\Users\Smoky\Desktop\What.CD Projects\John's Children - A Strange Affair (2013) 2CD [FLAC]\CD1\14 - Andy Ellison - Fool From Upper Eden.wav

Pre-gap length 0:00:01.30

Peak level 96.6 %
Extraction speed 1.4 X
Track quality 99.9 %
Test CRC 9577BE55
Copy CRC 9577BE55
Accurately ripped (confidence 1) [136530BC] (AR v2)
Copy OK

Track 15

Filename C:\Users\Smoky\Desktop\What.CD Projects\John's Children - A Strange Affair (2013) 2CD [FLAC]\CD1\15 - Andy Ellison - Another Lucky Lie.wav

Pre-gap length 0:00:01.17

Peak level 96.6 %
Extraction speed 1.6 X
Track quality 100.0 %
Test CRC ADA26720
Copy CRC ADA26720
Accurately ripped (confidence 1) [F1BA3167] (AR v2)
Copy OK

Track 16

Filename C:\Users\Smoky\Desktop\What.CD Projects\John's Children - A Strange Affair (2013) 2CD [FLAC]\CD1\16 - Andy Ellison - You Can't Do That.wav

Pre-gap length 0:00:01.29

Peak level 96.6 %
Extraction speed 1.8 X
Track quality 100.0 %
Test CRC 94A7931D
Copy CRC 94A7931D
Accurately ripped (confidence 1) [B225E5FB] (AR v2)
Copy OK

Track 17

Filename C:\Users\Smoky\Desktop\What.CD Projects\John's Children - A Strange Affair (2013) 2CD [FLAC]\CD1\17 - Andy Ellison - Cornflake Zoo.wav

Pre-gap length 0:00:01.28

Peak level 96.6 %
Extraction speed 1.7 X
Track quality 100.0 %
Test CRC 254A13D0
Copy CRC 254A13D0
Accurately ripped (confidence 1) [CA552C2A] (AR v2)
Copy OK

Track 18

Filename C:\Users\Smoky\Desktop\What.CD Projects\John's Children - A Strange Affair (2013) 2CD [FLAC]\CD1\18 - Andy Ellison - Help!.wav

Pre-gap length 0:00:01.32

Peak level 96.6 %
Extraction speed 1.8 X
Track quality 100.0 %
Test CRC CEDA2D11
Copy CRC CEDA2D11
Accurately ripped (confidence 1) [B2A8B7C0] (AR v2)
Copy OK

Track 19

Filename C:\Users\Smoky\Desktop\What.CD Projects\John's Children - A Strange Affair (2013) 2CD [FLAC]\CD1\19 - Andy Ellison - Casbah Candy.wav

Pre-gap length 0:00:01.22

Peak level 96.6 %
Extraction speed 1.7 X
Track quality 100.0 %
Test CRC E4417C61
Copy CRC E4417C61
Accurately ripped (confidence 1) [23430F7E] (AR v2)
Copy OK

Track 20

Filename C:\Users\Smoky\Desktop\What.CD Projects\John's Children - A Strange Affair (2013) 2CD [FLAC]\CD1\20 - Andy Ellison - Hippy Gumbo.wav

Pre-gap length 0:00:01.30

Peak level 98.9 %
Extraction speed 1.8 X
Track quality 100.0 %
Test CRC 644F1159
Copy CRC 644F1159
Accurately ripped (confidence 1) [2C3CC6EE] (AR v2)
Copy OK

Track 21

Filename C:\Users\Smoky\Desktop\What.CD Projects\John's Children - A Strange Affair (2013) 2CD [FLAC]\CD1\21 - Silence - Down Down.wav

Pre-gap length 0:00:01.69

Peak level 96.6 %
Extraction speed 2.0 X
Track quality 100.0 %
Test CRC 25F04630
Copy CRC 25F04630
Accurately ripped (confidence 1) [0A5E0C38] (AR v2)
Copy OK

Track 22

Filename C:\Users\Smoky\Desktop\What.CD Projects\John's Children - A Strange Affair (2013) 2CD [FLAC]\CD1\22 - Silence - Cold On Me.wav

Pre-gap length 0:00:01.32

Peak level 96.6 %
Extraction speed 2.0 X
Track quality 100.0 %
Test CRC 9055F617
Copy CRC 9055F617
Accurately ripped (confidence 1) [0E3BFAA7] (AR v2)
Copy OK

Track 23

Filename C:\Users\Smoky\Desktop\What.CD Projects\John's Children - A Strange Affair (2013) 2CD [FLAC]\CD1\23 - Silence - Forgive Me If I'm Wrong.wav

Pre-gap length 0:00:01.34

Peak level 96.7 %
Extraction speed 2.2 X
Track quality 100.0 %
Test CRC 198D21A4
Copy CRC 198D21A4
Accurately ripped (confidence 1) [9FDD4DA1] (AR v2)
Copy OK

Track 24

Filename C:\Users\Smoky\Desktop\What.CD Projects\John's Children - A Strange Affair (2013) 2CD [FLAC]\CD1\24 - John's Children - Mustang Ford.wav

Pre-gap length 0:00:01.92

Peak level 96.6 %
Extraction speed 2.0 X
Track quality 100.0 %
Test CRC 45FA7360
Copy CRC 45FA7360
Accurately ripped (confidence 1) [FD64B859] (AR v2)
Copy OK

Track 25

Filename C:\Users\Smoky\Desktop\What.CD Projects\John's Children - A Strange Affair (2013) 2CD [FLAC]\CD1\25 - John's Children - Not The Sort Of Girl You Take To Bed.wav

Pre-gap length 0:00:01.21

Peak level 96.6 %
Extraction speed 1.7 X
Track quality 99.9 %
Test CRC D0AE7696
Copy CRC D0AE7696
Accurately ripped (confidence 1) [D1605658] (AR v2)
Copy OK

Track 26

Filename C:\Users\Smoky\Desktop\What.CD Projects\John's Children - A Strange Affair (2013) 2CD [FLAC]\CD1\26 - John's Children - Sally Was An Angel [Vocal].wav

Pre-gap length 0:00:01.26

Peak level 96.6 %
Extraction speed 2.2 X
Track quality 100.0 %
Test CRC E4B9230C
Copy CRC E4B9230C
Accurately ripped (confidence 1) [4B3ECFD6] (AR v2)
Copy OK


All tracks accurately ripped

No errors occurred

End of status report

–– CUETools DB Plugin V2.1.3

[CTDB TOCID: vRNNQP8f7RvcHFsvsqa68LIZXqU-] found, Submit result: vRNNQP8f7RvcHFsvsqa68LIZXqU- has been confirmed
[ae829de9] (2/2) Accurately ripped


==== Log checksum 358B64EBC28D19502AA599522131E6EA2F3AA2950D456B73A863DE3241094005 ====

[CUETools log; Date: 18.11.2017 15:28:15; Version: 2.1.4]
[CTDB TOCID: vRNNQP8f7RvcHFsvsqa68LIZXqU-] found.
Track | CTDB Status
1 | (6/6) Accurately ripped
2 | (6/6) Accurately ripped
3 | (6/6) Accurately ripped
4 | (6/6) Accurately ripped
5 | (6/6) Accurately ripped
6 | (6/6) Accurately ripped
7 | (6/6) Accurately ripped
8 | (6/6) Accurately ripped
9 | (6/6) Accurately ripped
10 | (6/6) Accurately ripped
11 | (6/6) Accurately ripped
12 | (6/6) Accurately ripped
13 | (6/6) Accurately ripped
14 | (6/6) Accurately ripped
15 | (6/6) Accurately ripped
16 | (6/6) Accurately ripped
17 | (6/6) Accurately ripped
18 | (6/6) Accurately ripped
19 | (6/6) Accurately ripped
20 | (6/6) Accurately ripped
21 | (6/6) Accurately ripped
22 | (6/6) Accurately ripped
23 | (6/6) Accurately ripped
24 | (6/6) Accurately ripped
25 | (6/6) Accurately ripped
26 | (6/6) Accurately ripped
[AccurateRip ID: 003d9adb-0482e184-7710021a] found.
Track [ CRC | V2 ] Status
01 [76126b19|36e46b60] (0+2/2) Accurately ripped
02 [1341cde6|b0a0daa7] (0+2/2) Accurately ripped
03 [af643c00|d60cefca] (0+2/2) Accurately ripped
04 [d17f8830|461df29b] (0+2/2) Accurately ripped
05 [35aee80a|2d61ad18] (0+2/2) Accurately ripped
06 [74ed02c3|1c08d4a0] (0+2/2) Accurately ripped
07 [dae177b2|396e2dc8] (0+2/2) Accurately ripped
08 [6280f22a|197295eb] (0+2/2) Accurately ripped
09 [6118623f|036251d8] (0+2/2) Accurately ripped
10 [144a6fbd|a1048e3f] (0+2/2) Accurately ripped
11 [59ee3262|950ae074] (0+2/2) Accurately ripped
12 [a2561c9f|91d650bc] (0+2/2) Accurately ripped
13 [120d981a|679c3934] (0+2/2) Accurately ripped
14 [1d1932f6|136530bc] (0+2/2) Accurately ripped
15 [895e360e|f1ba3167] (0+2/2) Accurately ripped
16 [81f16f93|b225e5fb] (0+2/2) Accurately ripped
17 [a70f50d1|ca552c2a] (0+2/2) Accurately ripped
18 [653e4eaf|b2a8b7c0] (0+2/2) Accurately ripped
19 [d7c0942a|23430f7e] (0+2/2) Accurately ripped
20 [1f9c62c6|2c3cc6ee] (0+2/2) Accurately ripped
21 [548ed9c0|0a5e0c38] (0+2/2) Accurately ripped
22 [b3e77823|0e3bfaa7] (0+2/2) Accurately ripped
23 [2c1ca3f1|9fdd4da1] (0+2/2) Accurately ripped
24 [c87f9ed0|fd64b859] (0+2/2) Accurately ripped
25 [4ca8d9b0|d1605658] (0+2/2) Accurately ripped
26 [0342f26e|4b3ecfd6] (0+2/2) Accurately ripped

Track Peak [ CRC32 ] [W/O NULL] [ LOG ]
– 100,0 [55766D0B] [73BD2956]
01 96,6 [E3258D1F] [0FE75CD2] CRC32
02 96,6 [B7BEEFA0] [27DEC02F] CRC32
03 96,6 [1D9F2D01] [4B4F2A1A] CRC32
04 96,6 [D0DC2049] [B60E9191] CRC32
05 100,0 [F4D228A5] [B9E67D7C] CRC32
06 96,6 [5F8E63C7] [78ED3DD5] CRC32
07 96,6 [C519E257] [CD4F3CE0] CRC32
08 96,6 [5B5C1620] [312692C3] CRC32
09 96,6 [DBFA150C] [BA804852] CRC32
10 96,6 [F8B99CD6] [DDF73493] CRC32
11 96,6 [B8BBF866] [4EBC21F2] CRC32
12 96,6 [E3176BFD] [5407830A] CRC32
13 96,6 [CEEB62DE] [2FDD13E1] CRC32
14 96,6 [9577BE55] [144C9C2C] CRC32
15 96,6 [ADA26720] [13A226B4] CRC32
16 96,6 [94A7931D] [08A59564] CRC32
17 96,6 [254A13D0] [06384CC0] CRC32
18 96,6 [CEDA2D11] [5E10CBD6] CRC32
19 96,6 [E4417C61] [FE6CDD8D] CRC32
20 98,9 [644F1159] [BAC3B1EB] CRC32
21 96,6 [25F04630] [7B9A58DB] CRC32
22 96,6 [9055F617] [D5EE3742] CRC32
23 96,7 [198D21A4] [57124FE1] CRC32
24 96,6 [45FA7360] [932D9AF6] CRC32
25 96,6 [D0AE7696] [B6820D7A] CRC32
26 96,6 [E4B9230C] [F7B56BB7] CRC32

Exact Audio Copy V1.0 beta 3 from 29. August 2011

EAC extraction logfile from 20. October 2014, 19:30

John's Children / A Strange Affair 2/2

Used drive : HL-DT-STBD-RE WH12LS30 Adapter: 3 ID: 0

Read mode : Secure
Utilize accurate stream : Yes
Defeat audio cache : Yes
Make use of C2 pointers : No

Read offset correction : 667
Overread into Lead-In and Lead-Out : No
Fill up missing offset samples with silence : Yes
Delete leading and trailing silent blocks : No
Null samples used in CRC calculations : Yes
Used interface : Native Win32 interface for Win NT & 2000
Gap handling : Appended to previous track

Used output format : User Defined Encoder
Selected bitrate : 1024 kBit/s
Quality : High
Add ID3 tag : No
Command line compressor : C:\Program Files (x86)\Exact Audio Copy\FLAC\FLAC.EXE
Additional command line options : -6 -V -T "ARTIST=%artist%" -T "TITLE=%title%" -T "ALBUM=%albumtitle%" -T "DATE=%year%" -T "TRACKNUMBER=%tracknr%" -T "GENRE=%genre%" -T "COMMENT=%comment%" -T "BAND=%albuminterpret%" -T "ALBUMARTIST=%albuminterpret%" -T "COMPOSER=%composer%" %haslyrics%–tag-from-file=LYRICS="%lyricsfile%"%haslyrics% -T "DISCNUMBER=%cdnumber%" -T "TOTALDISCS=%totalcds%" -T "TOTALTRACKS=%numtracks%" %hascover%–picture="%coverfile%"%hascover% %source% -o %dest%


TOC of the extracted CD

Track | Start | Length | Start sector | End sector
––––––––––––––––––––––––––––-
1 | 0:00.00 | 2:29.00 | 0 | 11174
2 | 2:29.00 | 3:11.69 | 11175 | 25568
3 | 5:40.69 | 3:19.04 | 25569 | 40497
4 | 8:59.73 | 3:33.08 | 40498 | 56480
5 | 12:33.06 | 2:07.27 | 56481 | 66032
6 | 14:40.33 | 2:49.47 | 66033 | 78754
7 | 17:30.05 | 3:10.66 | 78755 | 93070
8 | 20:40.71 | 3:25.31 | 93071 | 108476
9 | 24:06.27 | 3:31.74 | 108477 | 124375
10 | 27:38.26 | 5:05.40 | 124376 | 147290
11 | 32:43.66 | 2:01.40 | 147291 | 156405
12 | 34:45.31 | 1:59.59 | 156406 | 165389
13 | 36:45.15 | 3:08.50 | 165390 | 179539
14 | 39:53.65 | 2:23.72 | 179540 | 190336
15 | 42:17.62 | 2:36.28 | 190337 | 202064
16 | 44:54.15 | 2:37.29 | 202065 | 213868
17 | 47:31.44 | 2:27.41 | 213869 | 224934
18 | 49:59.10 | 2:48.32 | 224935 | 237566
19 | 52:47.42 | 3:09.66 | 237567 | 251807
20 | 55:57.33 | 2:58.64 | 251808 | 265221
21 | 58:56.22 | 2:36.27 | 265222 | 276948
22 | 61:32.49 | 2:40.51 | 276949 | 288999
23 | 64:13.25 | 3:10.52 | 289000 | 303301
24 | 67:24.02 | 2:10.21 | 303302 | 313072
25 | 69:34.23 | 2:41.26 | 313073 | 325173
26 | 72:15.49 | 2:37.01 | 325174 | 336949


Track 1

Filename C:\Users\Smoky\Desktop\What.CD Projects\John's Children - A Strange Affair (2013) 2CD [FLAC]\CD2\01 - John's Children - Killer Ben.wav

Pre-gap length 0:00:02.00

Peak level 98.8 %
Extraction speed 1.0 X
Track quality 100.0 %
Test CRC 0A7AF75A
Copy CRC 0A7AF75A
Accurately ripped (confidence 1) [F93364D6] (AR v2)
Copy OK

Track 2

Filename C:\Users\Smoky\Desktop\What.CD Projects\John's Children - A Strange Affair (2013) 2CD [FLAC]\CD2\02 - John's Children - Jagged Time Lapse.wav

Peak level 98.9 %
Extraction speed 1.0 X
Track quality 99.9 %
Test CRC C2279C68
Copy CRC C2279C68
Accurately ripped (confidence 1) [0BCA33A6] (AR v2)
Copy OK

Track 3

Filename C:\Users\Smoky\Desktop\What.CD Projects\John's Children - A Strange Affair (2013) 2CD [FLAC]\CD2\03 - John's Children - Smashed! Blocked!.wav

Peak level 98.8 %
Extraction speed 1.3 X
Track quality 100.0 %
Test CRC ED233F8C
Copy CRC ED233F8C
Accurately ripped (confidence 1) [E044BC35] (AR v2)
Copy OK

Track 4

Filename C:\Users\Smoky\Desktop\What.CD Projects\John's Children - A Strange Affair (2013) 2CD [FLAC]\CD2\04 - John's Children - You're A Nothing.wav

Peak level 98.9 %
Extraction speed 1.2 X
Track quality 99.9 %
Test CRC 41A6886F
Copy CRC 41A6886F
Accurately ripped (confidence 1) [94007AF3] (AR v2)
Copy OK

Track 5

Filename C:\Users\Smoky\Desktop\What.CD Projects\John's Children - A Strange Affair (2013) 2CD [FLAC]\CD2\05 - John's Children - Not The Sort Of Girl.wav

Peak level 98.9 %
Extraction speed 1.3 X
Track quality 100.0 %
Test CRC 479A2554
Copy CRC 479A2554
Accurately ripped (confidence 1) [449F40FD] (AR v2)
Copy OK

Track 6

Filename C:\Users\Smoky\Desktop\What.CD Projects\John's Children - A Strange Affair (2013) 2CD [FLAC]\CD2\06 - John's Children - Cold On Me.wav

Pre-gap length 0:00:00.01

Peak level 98.9 %
Extraction speed 1.2 X
Track quality 99.9 %
Test CRC AE7CE475
Copy CRC AE7CE475
Accurately ripped (confidence 1) [21E7ACD4] (AR v2)
Copy OK

Track 7

Filename C:\Users\Smoky\Desktop\What.CD Projects\John's Children - A Strange Affair (2013) 2CD [FLAC]\CD2\07 - John's Children - Leave Me Alone.wav

Peak level 98.8 %
Extraction speed 1.3 X
Track quality 99.9 %
Test CRC 8AC76AA3
Copy CRC 8AC76AA3
Accurately ripped (confidence 1) [CA0F8EF1] (AR v2)
Copy OK

Track 8

Filename C:\Users\Smoky\Desktop\What.CD Projects\John's Children - A Strange Affair (2013) 2CD [FLAC]\CD2\08 - John's Children - Let Me Know.wav

Peak level 98.9 %
Extraction speed 1.6 X
Track quality 100.0 %
Test CRC EF74E379
Copy CRC EF74E379
Accurately ripped (confidence 1) [4A1CF10E] (AR v2)
Copy OK

Track 9

Filename C:\Users\Smoky\Desktop\What.CD Projects\John's Children - A Strange Affair (2013) 2CD [FLAC]\CD2\09 - John's Children - Just What You Want - Just What You'll Get.wav

Peak level 98.8 %
Extraction speed 1.7 X
Track quality 100.0 %
Test CRC 0ADD04E0
Copy CRC 0ADD04E0
Accurately ripped (confidence 1) [D74683E5] (AR v2)
Copy OK

Track 10

Filename C:\Users\Smoky\Desktop\What.CD Projects\John's Children - A Strange Affair (2013) 2CD [FLAC]\CD2\10 - John's Children - Why Do You Lie.wav

Peak level 98.9 %
Extraction speed 1.9 X
Track quality 100.0 %
Test CRC 1230DA3F
Copy CRC 1230DA3F
Accurately ripped (confidence 1) [907AFA7F] (AR v2)
Copy OK

Track 11

Filename C:\Users\Smoky\Desktop\What.CD Projects\John's Children - A Strange Affair (2013) 2CD [FLAC]\CD2\11 - John's Children - Strange Affair [Alternate Mix].wav

Pre-gap length 0:00:00.90

Peak level 96.6 %
Extraction speed 1.6 X
Track quality 100.0 %
Test CRC 6DC45B1E
Copy CRC 6DC45B1E
Accurately ripped (confidence 1) [69BB6DC2] (AR v2)
Copy OK

Track 12

Filename C:\Users\Smoky\Desktop\What.CD Projects\John's Children - A Strange Affair (2013) 2CD [FLAC]\CD2\12 - John's Children - But She's Mine [Alternate Mix].wav

Pre-gap length 0:00:01.58

Peak level 96.6 %
Extraction speed 1.7 X
Track quality 100.0 %
Test CRC 4238D1FE
Copy CRC 4238D1FE
Accurately ripped (confidence 1) [B89EBB3D] (AR v2)
Copy OK

Track 13

Filename C:\Users\Smoky\Desktop\What.CD Projects\John's Children - A Strange Affair (2013) 2CD [FLAC]\CD2\13 - John's Children - The Love I Thought I'd Found [First Version].wav

Pre-gap length 0:00:01.54

Peak level 96.6 %
Extraction speed 1.9 X
Track quality 100.0 %
Test CRC E8FEBF10
Copy CRC E8FEBF10
Accurately ripped (confidence 1) [36B79C46] (AR v2)
Copy OK

Track 14

Filename C:\Users\Smoky\Desktop\What.CD Projects\John's Children - A Strange Affair (2013) 2CD [FLAC]\CD2\14 - John's Children - Desdemona [''Why Do You Have To Lie'' Version].wav

Pre-gap length 0:00:01.54

Peak level 96.6 %
Extraction speed 1.9 X
Track quality 100.0 %
Test CRC 2B9E213E
Copy CRC 2B9E213E
Accurately ripped (confidence 1) [53823F2C] (AR v2)
Copy OK

Track 15

Filename C:\Users\Smoky\Desktop\What.CD Projects\John's Children - A Strange Affair (2013) 2CD [FLAC]\CD2\15 - John's Children - Remember Thomas À Becket [Alternate Version].wav

Pre-gap length 0:00:01.57

Peak level 96.6 %
Extraction speed 1.6 X
Track quality 99.9 %
Test CRC 6CC84051
Copy CRC 6CC84051
Accurately ripped (confidence 1) [739ED2B0] (AR v2)
Copy OK

Track 16

Filename C:\Users\Smoky\Desktop\What.CD Projects\John's Children - A Strange Affair (2013) 2CD [FLAC]\CD2\16 - John's Children - Midsummer Night's Scene [Alternate Version].wav

Pre-gap length 0:00:01.53

Peak level 96.6 %
Extraction speed 1.6 X
Track quality 99.9 %
Test CRC F4CE2848
Copy CRC F4CE2848
Accurately ripped (confidence 1) [65CD560F] (AR v2)
Copy OK

Track 17

Filename C:\Users\Smoky\Desktop\What.CD Projects\John's Children - A Strange Affair (2013) 2CD [FLAC]\CD2\17 - John's Children - Sara, Crazy Child [German Single].wav

Pre-gap length 0:00:01.50

Peak level 96.6 %
Extraction speed 2.0 X
Track quality 100.0 %
Test CRC D19DC7AE
Copy CRC D19DC7AE
Accurately ripped (confidence 1) [CBE753B4] (AR v2)
Copy OK

Track 18

Filename C:\Users\Smoky\Desktop\What.CD Projects\John's Children - A Strange Affair (2013) 2CD [FLAC]\CD2\18 - John's Children - Jagged Time Lapse [Alternate Version].wav

Pre-gap length 0:00:01.56

Peak level 96.6 %
Extraction speed 2.1 X
Track quality 100.0 %
Test CRC 158BAFB3
Copy CRC 158BAFB3
Accurately ripped (confidence 1) [B00953D2] (AR v2)
Copy OK

Track 19

Filename C:\Users\Smoky\Desktop\What.CD Projects\John's Children - A Strange Affair (2013) 2CD [FLAC]\CD2\19 - Andy Ellison - It's Been A Long Time [Stereo Mix].wav

Pre-gap length 0:00:01.60

Peak level 98.9 %
Extraction speed 1.9 X
Track quality 99.9 %
Test CRC 5ACCF4C8
Copy CRC 5ACCF4C8
Accurately ripped (confidence 1) [76855C10] (AR v2)
Copy OK

Track 20

Filename C:\Users\Smoky\Desktop\What.CD Projects\John's Children - A Strange Affair (2013) 2CD [FLAC]\CD2\20 - Andy Ellison - You Can't Do That [Acetate Version].wav

Pre-gap length 0:00:01.60

Peak level 92.1 %
Extraction speed 2.2 X
Track quality 100.0 %
Test CRC 2473954B
Copy CRC 2473954B
Accurately ripped (confidence 1) [60D3B5FA] (AR v2)
Copy OK

Track 21

Filename C:\Users\Smoky\Desktop\What.CD Projects\John's Children - A Strange Affair (2013) 2CD [FLAC]\CD2\21 - John's Children - Hippy Gumbo [Marc Bolan Vocal].wav

Pre-gap length 0:00:01.56

Peak level 96.6 %
Extraction speed 1.8 X
Track quality 99.9 %
Test CRC 25174575
Copy CRC 25174575
Accurately ripped (confidence 1) [B44C9360] (AR v2)
Copy OK

Track 22

Filename C:\Users\Smoky\Desktop\What.CD Projects\John's Children - A Strange Affair (2013) 2CD [FLAC]\CD2\22 - John's Children - Not The Sort Of Girl You Take To Bed [Alternate Version].wav

Pre-gap length 0:00:01.56

Peak level 98.9 %
Extraction speed 1.8 X
Track quality 99.9 %
Test CRC 453F7106
Copy CRC 453F7106
Accurately ripped (confidence 1) [83F7A23E] (AR v2)
Copy OK

Track 23

Filename C:\Users\Smoky\Desktop\What.CD Projects\John's Children - A Strange Affair (2013) 2CD [FLAC]\CD2\23 - John's Children - Sally Was An Angel [Instrumental].wav

Pre-gap length 0:00:01.53

Peak level 98.9 %
Extraction speed 2.3 X
Track quality 100.0 %
Test CRC 546CDAA9
Copy CRC 546CDAA9
Accurately ripped (confidence 1) [65CFA8D8] (AR v2)
Copy OK

Track 24

Filename C:\Users\Smoky\Desktop\What.CD Projects\John's Children - A Strange Affair (2013) 2CD [FLAC]\CD2\24 - John's Children - Come And Play With Me In The Garden [Instrumental].wav

Pre-gap length 0:00:01.60

Peak level 98.8 %
Extraction speed 2.2 X
Track quality 100.0 %
Test CRC 871C1173
Copy CRC 871C1173
Accurately ripped (confidence 1) [7A148412] (AR v2)
Copy OK

Track 25

Filename C:\Users\Smoky\Desktop\What.CD Projects\John's Children - A Strange Affair (2013) 2CD [FLAC]\CD2\25 - John's Children - The Perfumed Garden Of Gulliver Smith [Instrumental].wav

Pre-gap length 0:00:01.60

Peak level 98.8 %
Extraction speed 2.0 X
Track quality 99.9 %
Test CRC 641BEEC4
Copy CRC 641BEEC4
Accurately ripped (confidence 1) [C15266D2] (AR v2)
Copy OK

Track 26

Filename C:\Users\Smoky\Desktop\What.CD Projects\John's Children - A Strange Affair (2013) 2CD [FLAC]\CD2\26 - John's Children - Midsummer Night's Scene [Alternate Mix].wav

Pre-gap length 0:00:01.60

Peak level 98.9 %
Extraction speed 2.3 X
Track quality 100.0 %
Test CRC F5D07476
Copy CRC F5D07476
Accurately ripped (confidence 1) [E06DF51C] (AR v2)
Copy OK


All tracks accurately ripped

No errors occurred

End of status report

–– CUETools DB Plugin V2.1.3

[CTDB TOCID: CRwXS7fBM3qeB9oHnO89cX_NYGQ-] found, Submit result: CRwXS7fBM3qeB9oHnO89cX_NYGQ- has been confirmed
[d3fd1496] (1/1) Accurately ripped


==== Log checksum 43F20680557285DC80EE3312FAFE01E6AA036EED20C8852DFDBC98EE954B2F93 ====

[CUETools log; Date: 18.11.2017 15:28:55; Version: 2.1.4]
[CTDB TOCID: CRwXS7fBM3qeB9oHnO89cX_NYGQ-] found.
Track | CTDB Status
1 | (5/5) Accurately ripped
2 | (5/5) Accurately ripped
3 | (5/5) Accurately ripped
4 | (5/5) Accurately ripped
5 | (5/5) Accurately ripped
6 | (5/5) Accurately ripped
7 | (5/5) Accurately ripped
8 | (5/5) Accurately ripped
9 | (5/5) Accurately ripped
10 | (5/5) Accurately ripped
11 | (5/5) Accurately ripped
12 | (5/5) Accurately ripped
13 | (5/5) Accurately ripped
14 | (5/5) Accurately ripped
15 | (5/5) Accurately ripped
16 | (5/5) Accurately ripped
17 | (5/5) Accurately ripped
18 | (5/5) Accurately ripped
19 | (5/5) Accurately ripped
20 | (5/5) Accurately ripped
21 | (5/5) Accurately ripped
22 | (5/5) Accurately ripped
23 | (5/5) Accurately ripped
24 | (5/5) Accurately ripped
25 | (5/5) Accurately ripped
26 | (5/5) Accurately ripped
[AccurateRip ID: 00477631-052e1738-89118c1a] found.
Track [ CRC | V2 ] Status
01 [c36939f4|f93364d6] (0+2/2) Accurately ripped
02 [bd45fbdf|0bca33a6] (0+2/2) Accurately ripped
03 [f9e3c721|e044bc35] (0+2/2) Accurately ripped
04 [b1c6a4f8|94007af3] (0+2/2) Accurately ripped
05 [ca326285|449f40fd] (0+2/2) Accurately ripped
06 [74681a92|21e7acd4] (0+2/2) Accurately ripped
07 [ecb94727|ca0f8ef1] (0+2/2) Accurately ripped
08 [02cac14e|4a1cf10e] (0+2/2) Accurately ripped
09 [5d70884b|d74683e5] (0+2/2) Accurately ripped
10 [e583bee9|907afa7f] (0+2/2) Accurately ripped
11 [cc85dd46|69bb6dc2] (0+2/2) Accurately ripped
12 [5088aca6|b89ebb3d] (0+2/2) Accurately ripped
13 [bfa7a4e7|36b79c46] (0+2/2) Accurately ripped
14 [e6c0c0bc|53823f2c] (0+2/2) Accurately ripped
15 [29681411|739ed2b0] (0+2/2) Accurately ripped
16 [b01c6830|65cd560f] (0+2/2) Accurately ripped
17 [fa3bfcdc|cbe753b4] (0+2/2) Accurately ripped
18 [a2b7393d|b00953d2] (0+2/2) Accurately ripped
19 [b4256c54|76855c10] (0+2/2) Accurately ripped
20 [b0e5e034|60d3b5fa] (0+2/2) Accurately ripped
21 [3aac4a52|b44c9360] (0+2/2) Accurately ripped
22 [7cce2642|83f7a23e] (0+2/2) Accurately ripped
23 [a5629193|65cfa8d8] (0+2/2) Accurately ripped
24 [ba401512|7a148412] (0+2/2) Accurately ripped
25 [4044e51d|c15266d2] (0+2/2) Accurately ripped
26 [52991492|e06df51c] (0+2/2) Accurately ripped

Track Peak [ CRC32 ] [W/O NULL] [ LOG ]
– 98,9 [4D20FC9B] [0DDE2D39]
01 98,8 [0A7AF75A] [2B6A802D] CRC32
02 98,9 [C2279C68] [4D4C0919] CRC32
03 98,8 [ED233F8C] [5DA77177] CRC32
04 98,9 [41A6886F] [20465C1C] CRC32
05 98,9 [479A2554] [BB131AEE] CRC32
06 98,9 [AE7CE475] [9D6382F5] CRC32
07 98,8 [8AC76AA3] [D5BB091E] CRC32
08 98,9 [EF74E379] [02211A74] CRC32
09 98,8 [0ADD04E0] [58854A9A] CRC32
10 98,9 [1230DA3F] [427207C2] CRC32
11 96,6 [6DC45B1E] [956B33C6] CRC32
12 96,6 [4238D1FE] [0970A352] CRC32
13 96,6 [E8FEBF10] [E0FD65B8] CRC32
14 96,6 [2B9E213E] [D10B4758] CRC32
15 96,6 [6CC84051] [12B904F8] CRC32
16 96,6 [F4CE2848] [891EE7C7] CRC32
17 96,6 [D19DC7AE] [647701B2] CRC32
18 96,6 [158BAFB3] [E64857A8] CRC32
19 98,9 [5ACCF4C8] [1A4445D5] CRC32
20 92,1 [2473954B] [E615BF74] CRC32
21 96,6 [25174575] [6367FFD7] CRC32
22 98,8 [453F7106] [0A4BC73F] CRC32
23 98,9 [546CDAA9] [F85936F9] CRC32
24 98,8 [871C1173] [0F6CD827] CRC32
25 98,8 [641BEEC4] [0433041D] CRC32
26 98,9 [F5D07476] [85FA5607] CRC32

Thanks to SmokyPS