Subcategories

Jon Hopkins - How I Live Now (OST) (2013)

Posted By: gribovar
Jon Hopkins - How I Live Now (OST) (2013)

Jon Hopkins - How I Live Now (OST) (2013)
EAC Rip | FLAC (tracks+.cue+log) - 248 MB | MP3 CBR 320 kbps (LAME 3.93) - 123 MB | Covers (14 MB) included
Genre: Modern Classical, Electronic, Ambient | RAR 3% Rec. | Label: Just Music (TAO 056)

How I Live Now is the big screen adaptation of the award-winning young adult novel by Meg Rosoff, directed by acclaimed Academy Award winning director Kevin McDonald (The Last King Of Scotland, Marley). The original soundtrack is scored by Jon Hopkins, composer, producer and longterm collaborator of Brian Eno and Coldplay. Featuring some of his darkest, most nihilistic work to date, the score is built from two contrasting elements - atonal, sub-terrestrial drones with a backbone of pounding rhythms, and sublimely pastoral acoustic piano. These two opposing musical forces guide the viewer through the film, by turns disturbing and beautifully meditative. The centrepiece of the score is the track The Hawk, a timeless and heartbreaking theme that recurs throughout the film.
Tracklist:
01. Amanda Palmer & The Grand Theft Orchestra - Do It With A Rockstar
02. The Field
03. The River
04. Rain And Ash
05. The Hawk
06. Distant Fire
07. Nightfall / Love Theme
08. Taken Away
09. Daughter - Home (Jon Hopkins Remix)
10. Escape
11. The Forest / Plane Wreck
12. Gatesfield
13. Hunted
14. Lost Map / The Hawk
15. How I Live Now
16. Natasha Khan & Jon Hopkins - Garden's Heart

Total time: 44:17

Exact Audio Copy V1.0 beta 3 from 29. August 2011

EAC extraction logfile from 12. December 2013, 9:49

Jon Hopkins / How I Live Now

Used drive : HL-DT-STDVD-RAM GH22LP21 Adapter: 0 ID: 0

Read mode : Secure
Utilize accurate stream : Yes
Defeat audio cache : Yes
Make use of C2 pointers : No

Read offset correction : 102
Overread into Lead-In and Lead-Out : No
Fill up missing offset samples with silence : Yes
Delete leading and trailing silent blocks : No
Null samples used in CRC calculations : Yes
Used interface : Native Win32 interface for Win NT & 2000
Gap handling : Appended to previous track

Used output format : User Defined Encoder
Selected bitrate : 128 kBit/s
Quality : High
Add ID3 tag : No
Command line compressor : C:\Program Files\Exact Audio Copy\Flac\flac.exe
Additional command line options : -8 -V -T "ARTIST=%artist%" -T "TITLE=%title%" -T "ALBUM=%albumtitle%" -T "DATE=%year%" -T "TRACKNUMBER=%tracknr%" -T "GENRE=%genre%" -T "PERFORMER=%albuminterpret%" -T "COMPOSER=%composer%" %haslyrics%–tag-from-file=LYRICS="%lyricsfile%"%haslyrics% -T "ALBUMARTIST=%albumartist%" -T "ALBUM ARTIST=%albumartist%" -T "DISCNUMBER=%cdnumber%" -T "TOTALDISCS=%totalcds%" -T "TOTALTRACKS=%numtracks%" -T "COMMENT=%comment%" %source% -o %dest%


TOC of the extracted CD

Track | Start | Length | Start sector | End sector
––––––––––––––––––––––––––––-
1 | 0:00.00 | 4:29.01 | 0 | 20175
2 | 4:29.01 | 1:47.00 | 20176 | 28200
3 | 6:16.01 | 1:51.15 | 28201 | 36540
4 | 8:07.16 | 2:42.30 | 36541 | 48720
5 | 10:49.46 | 1:33.71 | 48721 | 55766
6 | 12:23.42 | 0:47.62 | 55767 | 59353
7 | 13:11.29 | 1:08.59 | 59354 | 64512
8 | 14:20.13 | 2:37.05 | 64513 | 76292
9 | 16:57.18 | 3:04.70 | 76293 | 90162
10 | 20:02.13 | 2:59.70 | 90163 | 103657
11 | 23:02.08 | 2:50.74 | 103658 | 116481
12 | 25:53.07 | 4:25.51 | 116482 | 136407
13 | 30:18.58 | 1:41.73 | 136408 | 144055
14 | 32:00.56 | 3:48.24 | 144056 | 161179
15 | 35:49.05 | 4:34.07 | 161180 | 181736
16 | 40:23.12 | 3:54.00 | 181737 | 199286


Track 1

Filename C:\Music04_moviez\H\How I Live Now (2013, FLAC) - Jon Hopkins\01 - Amanda Palmer & The Grand Theft Orchestra - Do it with a Rockstar.wav

Pre-gap length 0:00:02.00

Peak level 99.8 %
Extraction speed 1.7 X
Track quality 100.0 %
Test CRC 079F918E
Copy CRC 079F918E
Accurately ripped (confidence 1) [ACDE044D] (AR v2)
Copy OK

Track 2

Filename C:\Music04_moviez\H\How I Live Now (2013, FLAC) - Jon Hopkins\02 - Jon Hopkins - The Field.wav

Pre-gap length 0:00:03.69

Peak level 97.7 %
Extraction speed 1.5 X
Track quality 100.0 %
Test CRC D2B16039
Copy CRC D2B16039
Accurately ripped (confidence 1) [43DD6238] (AR v2)
Copy OK

Track 3

Filename C:\Music04_moviez\H\How I Live Now (2013, FLAC) - Jon Hopkins\03 - Jon Hopkins - The River.wav

Peak level 100.0 %
Extraction speed 1.3 X
Track quality 99.9 %
Test CRC B8B3D7F3
Copy CRC B8B3D7F3
Accurately ripped (confidence 1) [253ADC4A] (AR v2)
Copy OK

Track 4

Filename C:\Music04_moviez\H\How I Live Now (2013, FLAC) - Jon Hopkins\04 - Jon Hopkins - Rain and Ash.wav

Peak level 97.8 %
Extraction speed 1.8 X
Track quality 100.0 %
Test CRC 8C6ED4C5
Copy CRC 8C6ED4C5
Accurately ripped (confidence 1) [39CAD6B4] (AR v2)
Copy OK

Track 5

Filename C:\Music04_moviez\H\How I Live Now (2013, FLAC) - Jon Hopkins\05 - Jon Hopkins - The Hawk.wav

Peak level 97.7 %
Extraction speed 1.3 X
Track quality 99.8 %
Test CRC 08FD27CE
Copy CRC 08FD27CE
Accurately ripped (confidence 1) [E1DDD0CB] (AR v2)
Copy OK

Track 6

Filename C:\Music04_moviez\H\How I Live Now (2013, FLAC) - Jon Hopkins\06 - Jon Hopkins - Distant Fire.wav

Peak level 97.7 %
Extraction speed 1.3 X
Track quality 100.0 %
Test CRC F279884E
Copy CRC F279884E
Accurately ripped (confidence 1) [6A1A9A5A] (AR v2)
Copy OK

Track 7

Filename C:\Music04_moviez\H\How I Live Now (2013, FLAC) - Jon Hopkins\07 - Jon Hopkins - Nightfall , Love Theme.wav

Peak level 97.7 %
Extraction speed 1.6 X
Track quality 100.0 %
Test CRC 9366C9BD
Copy CRC 9366C9BD
Accurately ripped (confidence 1) [0BF91511] (AR v2)
Copy OK

Track 8

Filename C:\Music04_moviez\H\How I Live Now (2013, FLAC) - Jon Hopkins\08 - Jon Hopkins - Taken Away.wav

Peak level 97.8 %
Extraction speed 2.0 X
Track quality 100.0 %
Test CRC FFABFC2D
Copy CRC FFABFC2D
Accurately ripped (confidence 1) [1A6398C1] (AR v2)
Copy OK

Track 9

Filename C:\Music04_moviez\H\How I Live Now (2013, FLAC) - Jon Hopkins\09 - Daughter - Home (Jon Hopkins Remix).wav

Peak level 97.8 %
Extraction speed 1.9 X
Track quality 99.9 %
Test CRC 7BECA550
Copy CRC 7BECA550
Accurately ripped (confidence 1) [FCC20B11] (AR v2)
Copy OK

Track 10

Filename C:\Music04_moviez\H\How I Live Now (2013, FLAC) - Jon Hopkins\10 - Jon Hopkins - Escape.wav

Pre-gap length 0:00:01.42

Peak level 97.8 %
Extraction speed 1.9 X
Track quality 99.9 %
Test CRC 2F29B2D8
Copy CRC 2F29B2D8
Accurately ripped (confidence 1) [58E34102] (AR v2)
Copy OK

Track 11

Filename C:\Music04_moviez\H\How I Live Now (2013, FLAC) - Jon Hopkins\11 - Jon Hopkins - The Forest , Plane Wreck.wav

Peak level 97.8 %
Extraction speed 2.0 X
Track quality 99.9 %
Test CRC 6EB91D96
Copy CRC 6EB91D96
Accurately ripped (confidence 1) [C76483D2] (AR v2)
Copy OK

Track 12

Filename C:\Music04_moviez\H\How I Live Now (2013, FLAC) - Jon Hopkins\12 - Jon Hopkins - Gatesfield.wav

Peak level 97.7 %
Extraction speed 2.6 X
Track quality 100.0 %
Test CRC 699414B8
Copy CRC 699414B8
Accurately ripped (confidence 1) [6F8BDE18] (AR v2)
Copy OK

Track 13

Filename C:\Music04_moviez\H\How I Live Now (2013, FLAC) - Jon Hopkins\13 - Jon Hopkins - Hunted.wav

Peak level 97.8 %
Extraction speed 2.2 X
Track quality 100.0 %
Test CRC B9BA9867
Copy CRC B9BA9867
Accurately ripped (confidence 1) [8CEB1377] (AR v2)
Copy OK

Track 14

Filename C:\Music04_moviez\H\How I Live Now (2013, FLAC) - Jon Hopkins\14 - Jon Hopkins - Lost Map , The Hawk.wav

Peak level 97.8 %
Extraction speed 2.7 X
Track quality 100.0 %
Test CRC 9FE30436
Copy CRC 9FE30436
Accurately ripped (confidence 1) [21ACB4E9] (AR v2)
Copy OK

Track 15

Filename C:\Music04_moviez\H\How I Live Now (2013, FLAC) - Jon Hopkins\15 - Jon Hopkins - How I Live Now.wav

Peak level 97.7 %
Extraction speed 2.8 X
Track quality 100.0 %
Test CRC 0DF63092
Copy CRC 0DF63092
Accurately ripped (confidence 1) [5401004E] (AR v2)
Copy OK

Track 16

Filename C:\Music04_moviez\H\How I Live Now (2013, FLAC) - Jon Hopkins\16 - Natasha Khan & Jon Hopkins - Garden's Heart.wav

Peak level 97.8 %
Extraction speed 2.9 X
Track quality 100.0 %
Test CRC 57F55FA9
Copy CRC 57F55FA9
Accurately ripped (confidence 1) [18BD0176] (AR v2)
Copy OK


All tracks accurately ripped

No errors occurred

End of status report

–– CUETools DB Plugin V2.1.3

[CTDB TOCID: zNU3pPqtlGAaPM_p9o3dOcFoO3Y-] disk not present in database, Submit result: zNU3pPqtlGAaPM_p9o3dOcFoO3Y- has been uploaded


==== Log checksum E6D8FA740C2CD8DBA827C4EB051AA256B6775B13DE7DB289055AD6D5B1953CE8 ====

[CUETools log; Date: 17.01.2018 14:57:34; Version: 2.1.4]
[CTDB TOCID: zNU3pPqtlGAaPM_p9o3dOcFoO3Y-] found.
Track | CTDB Status
1 | (7/7) Accurately ripped
2 | (7/7) Accurately ripped
3 | (7/7) Accurately ripped
4 | (7/7) Accurately ripped
5 | (7/7) Accurately ripped
6 | (7/7) Accurately ripped
7 | (7/7) Accurately ripped
8 | (7/7) Accurately ripped
9 | (7/7) Accurately ripped
10 | (7/7) Accurately ripped
11 | (7/7) Accurately ripped
12 | (7/7) Accurately ripped
13 | (7/7) Accurately ripped
14 | (7/7) Accurately ripped
15 | (7/7) Accurately ripped
16 | (7/7) Accurately ripped
[AccurateRip ID: 00173b69-0118eca1-d30a6110] found.
Track [ CRC | V2 ] Status
01 [a7c1d8b1|acde044d] (0+7/7) Accurately ripped
02 [29dfe9e9|43dd6238] (0+7/7) Accurately ripped
03 [a6165379|253adc4a] (0+7/7) Accurately ripped
04 [cc068c59|39cad6b4] (0+7/7) Accurately ripped
05 [81cfba51|e1ddd0cb] (0+7/7) Accurately ripped
06 [7c22e80e|6a1a9a5a] (0+7/7) Accurately ripped
07 [2033d6c1|0bf91511] (0+7/7) Accurately ripped
08 [999ce9a5|1a6398c1] (0+7/7) Accurately ripped
09 [88fad431|fcc20b11] (0+7/7) Accurately ripped
10 [c5bdf318|58e34102] (0+7/7) Accurately ripped
11 [04a39371|c76483d2] (0+7/7) Accurately ripped
12 [8d975efb|6f8bde18] (0+7/7) Accurately ripped
13 [f0d34546|8ceb1377] (0+7/7) Accurately ripped
14 [c263826e|21acb4e9] (0+7/7) Accurately ripped
15 [aa2cdefc|5401004e] (0+7/7) Accurately ripped
16 [873d3e7a|18bd0176] (0+7/7) Accurately ripped

Track Peak [ CRC32 ] [W/O NULL] [ LOG ]
– 100,0 [07EB624C] [2DF66DE6]
01 99,8 [079F918E] [B3119D6D] CRC32
02 97,7 [D2B16039] [DE4C7D1B] CRC32
03 100,0 [B8B3D7F3] [767A9405] CRC32
04 97,8 [8C6ED4C5] [A594C655] CRC32
05 97,7 [08FD27CE] [6672F6DD] CRC32
06 97,7 [F279884E] [6D2BE7E0] CRC32
07 97,7 [9366C9BD] [1BF60B69] CRC32
08 97,8 [FFABFC2D] [EA0890FB] CRC32
09 97,8 [7BECA550] [B08FCE9A] CRC32
10 97,8 [2F29B2D8] [EFFA77CB] CRC32
11 97,8 [6EB91D96] [48C2D5EA] CRC32
12 97,7 [699414B8] [E18B8227] CRC32
13 97,8 [B9BA9867] [45C8666E] CRC32
14 97,8 [9FE30436] [E5C52754] CRC32
15 97,7 [0DF63092] [AB088E9E] CRC32
16 97,8 [57F55FA9] [67EC12F8] CRC32

Thanks to the original releaser