Subcategories

Jonathan Butler - Jonathan Butler (1987)

Posted By: popsakov
Jonathan Butler - Jonathan Butler (1987)

Jonathan Butler - Jonathan Butler (1987)
EAC Rip | FLAC (Img) + Cue + Log ~ 480 Mb | MP3 CBR320 ~ 210 Mb
Full Scans (JPG, 600 dpi) | RAR 5% Recovery
R&B, Funk, Soul Jazz, Smooth Jazz | Jive / RCA #1032-2-J

The album that made Butler a star. The sweeping ballads, catchy uptempo, dance-oriented hits, and multi-tracked overdubs and background vocalists helped make his music a staple on late '80s Urban Contemporary radio. There is little jazz influence and even less jazz content on this release, but Butler does display a strong, effective singing voice.
~ Ron Wynn, All Music

***************

Jonathan Butler - Jonathan Butler (1987)

Jonathan Butler - Jonathan Butler (1987)

Track List:

01. Lies [0:04:37.43]
02. Love Song, Candlelight And You [0:04:56.15]
03. Going Home [0:04:45.00]
04. I Miss Your Love Tonight [0:04:42.15]
05. Holding On [0:04:08.42]
06. One More Dance [0:04:37.35]
07. Take Good Care Of Me [0:04:30.05]
08. Barenese [0:04:24.20]
09. All Over You [0:04:34.08]
10. Overflowing [0:04:06.20]
11. Loving You [0:04:47.37]
12. Sunset [0:04:10.70]
13. Say We'll Be Together [0:04:00.50]
14. Give A Little More Loving [0:04:13.38]
15. Reunion [0:04:46.30]
16. High Tide [0:04:43.05]

Exact Audio Copy V1.3 from 2. September 2016

EAC extraction logfile from 15. May 2018, 3:33

Jonathan Butler / Jonathan Butler

Used drive : ATAPI iHAS124 D Adapter: 0 ID: 2

Read mode : Secure
Utilize accurate stream : Yes
Defeat audio cache : Yes
Make use of C2 pointers : No

Read offset correction : 6
Overread into Lead-In and Lead-Out : No
Fill up missing offset samples with silence : Yes
Delete leading and trailing silent blocks : No
Null samples used in CRC calculations : Yes
Used interface : Installed external ASPI interface

Used output format : User Defined Encoder
Selected bitrate : 1024 kBit/s
Quality : High
Add ID3 tag : No
Command line compressor : C:\Program Files (x86)\Exact Audio Copy\Flac\flac.exe
Additional command line options : -6 -V -T "ARTIST=%artist%" -T "TITLE=%title%" -T "ALBUM=%albumtitle%" -T "DATE=%year%" -T "TRACKNUMBER=%tracknr%" -T "GENRE=%genre%" -T "COMMENT=%comment%" -T "BAND=%albuminterpret%" -T "ALBUMARTIST=%albuminterpret%" -T "COMPOSER=%composer%" %haslyrics%–tag-from-file=LYRICS="%lyricsfile%"%haslyrics% -T "DISCNUMBER=%cdnumber%" -T "TOTALDISCS=%totalcds%" -T "TOTALTRACKS=%numtracks%" %hascover%–picture="%coverfile%"%hascover% %source% -o %dest%


TOC of the extracted CD

Track | Start | Length | Start sector | End sector
––––––––––––––––––––––––––––-
1 | 0:00.00 | 4:37.43 | 0 | 20817
2 | 4:37.43 | 4:56.15 | 20818 | 43032
3 | 9:33.58 | 4:45.00 | 43033 | 64407
4 | 14:18.58 | 4:42.15 | 64408 | 85572
5 | 19:00.73 | 4:08.42 | 85573 | 104214
6 | 23:09.40 | 4:37.35 | 104215 | 125024
7 | 27:47.00 | 4:30.05 | 125025 | 145279
8 | 32:17.05 | 4:24.20 | 145280 | 165099
9 | 36:41.25 | 4:34.08 | 165100 | 185657
10 | 41:15.33 | 4:06.20 | 185658 | 204127
11 | 45:21.53 | 4:47.37 | 204128 | 225689
12 | 50:09.15 | 4:10.70 | 225690 | 244509
13 | 54:20.10 | 4:00.50 | 244510 | 262559
14 | 58:20.60 | 4:13.38 | 262560 | 281572
15 | 62:34.23 | 4:46.30 | 281573 | 303052
16 | 67:20.53 | 4:43.05 | 303053 | 324282


Range status and errors

Selected range

Filename C:\mm\Jonathan Butler\1987 - Jonathan Butler [1032-2-J]\Jonathan Butler - Jonathan Butler.wav

Peak level 95.8 %
Extraction speed 2.0 X
Range quality 100.0 %
Test CRC 73D605C5
Copy CRC 73D605C5
Copy OK

No errors occurred

End of status report

–– CUETools DB Plugin V2.1.6

[CTDB TOCID: ANEFjHjMiCt31Ka7KS3zEhNvkHc-] found
Submit result: ANEFjHjMiCt31Ka7KS3zEhNvkHc- has been confirmed
Track | CTDB Status
1 | (3/3) Accurately ripped
2 | (3/3) Accurately ripped
3 | (3/3) Accurately ripped
4 | (3/3) Accurately ripped
5 | (3/3) Accurately ripped
6 | (3/3) Accurately ripped
7 | (3/3) Accurately ripped
8 | (3/3) Accurately ripped
9 | (3/3) Accurately ripped
10 | (3/3) Accurately ripped
11 | (3/3) Accurately ripped
12 | (3/3) Accurately ripped
13 | (3/3) Accurately ripped
14 | (3/3) Accurately ripped
15 | (3/3) Accurately ripped
16 | (3/3) Accurately ripped

foobar2000 1.3.16 / Dynamic Range Meter 1.1.1
log date: 2018-05-17 23:18:48

––––––––––––––––––––––––––––––––––––––––
Analyzed: Jonathan Butler / Jonathan Butler
––––––––––––––––––––––––––––––––––––––––

DR Peak RMS Duration Track
––––––––––––––––––––––––––––––––––––––––
DR14 -1.05 dB -17.27 dB 4:38 01-Lies
DR14 -1.86 dB -18.35 dB 4:56 02-Love Song, Candlelight And You
DR14 -4.33 dB -19.91 dB 4:45 03-Going Home
DR15 -1.46 dB -18.13 dB 4:42 04-I Miss Your Love Tonight
DR12 -2.09 dB -16.44 dB 4:09 05-Holding On
DR12 -0.74 dB -14.06 dB 4:37 06-One More Dance
DR12 -0.37 dB -14.77 dB 4:30 07-Take Good Care Of Me
DR15 -1.07 dB -19.04 dB 4:24 08-Barenese
DR16 -2.07 dB -20.41 dB 4:34 09-All Over You
DR14 -0.43 dB -16.66 dB 4:06 10-Overflowing
DR12 -1.30 dB -16.91 dB 4:47 11-Loving You
DR14 -0.80 dB -18.13 dB 4:11 12-Sunset
DR13 -1.29 dB -16.47 dB 4:01 13-Say We'll Be Together
DR13 -0.40 dB -16.48 dB 4:14 14-Give A Little More Loving
DR13 -2.39 dB -17.98 dB 4:46 15-Reunion
DR15 -1.38 dB -19.39 dB 4:43 16-High Tide
––––––––––––––––––––––––––––––––––––––––

Number of tracks: 16
Official DR value: DR14

Samplerate: 44100 Hz
Channels: 2
Bits per sample: 16
Bitrate: 817 kbps
Codec: FLAC
================================================================================

[CUETools log; Date: 17.05.2018 23:19:09; Version: 2.1.6]
[CTDB TOCID: ANEFjHjMiCt31Ka7KS3zEhNvkHc-] found.
Track | CTDB Status
1 | (4/4) Accurately ripped
2 | (4/4) Accurately ripped
3 | (4/4) Accurately ripped
4 | (4/4) Accurately ripped
5 | (4/4) Accurately ripped
6 | (4/4) Accurately ripped
7 | (4/4) Accurately ripped
8 | (4/4) Accurately ripped
9 | (4/4) Accurately ripped
10 | (4/4) Accurately ripped
11 | (4/4) Accurately ripped
12 | (4/4) Accurately ripped
13 | (4/4) Accurately ripped
14 | (4/4) Accurately ripped
15 | (4/4) Accurately ripped
16 | (4/4) Accurately ripped
[AccurateRip ID: 002a7e8b-01fb6dae-d910e310] found.
Track [ CRC | V2 ] Status
01 [daed5723|b1a2c57a] (0+0/2) No match
02 [fa7d41c8|38d7d279] (0+2/4) Accurately ripped
03 [737a8b4b|fc5d9fb9] (0+2/4) Accurately ripped
04 [a9f775ba|77957313] (0+0/2) No match
05 [858027bc|d3c658a6] (0+0/2) No match
06 [586e16c7|5f385876] (0+2/4) Accurately ripped
07 [6c4fab18|9cfca660] (0+2/4) Accurately ripped
08 [8b86e66c|3457e4bc] (0+0/2) No match
09 [5e063a93|1319af16] (0+0/2) No match
10 [af6b6933|cfd4a3c2] (0+2/4) Accurately ripped
11 [089a7acf|6ee2f65c] (0+2/4) Accurately ripped
12 [8d8a9a20|dd7b7c04] (0+0/2) No match
13 [25590355|733ac068] (0+0/2) No match
14 [b75a310d|9361be97] (0+0/2) No match
15 [00bf3963|8c0b8e74] (0+0/2) No match
16 [17a1e638|ccf32890] (0+0/2) No match
Offsetted by 664:
01 [c7417e8b] (0/2) No match (V2 was not tested)
02 [ec0fae9f] (0/4) No match (V2 was not tested)
03 [7c37559f] (0/4) No match (V2 was not tested)
04 [695f176a] (0/2) No match (V2 was not tested)
05 [976887d2] (0/2) No match (V2 was not tested)
06 [4e700304] (0/4) No match (V2 was not tested)
07 [eb8a896e] (0/4) No match (V2 was not tested)
08 [08534083] (0/2) No match (V2 was not tested)
09 [1642e799] (0/2) No match (V2 was not tested)
10 [fc81b339] (0/4) No match (V2 was not tested)
11 [9cdda0e8] (0/4) No match (V2 was not tested)
12 [25202374] (0/2) No match (V2 was not tested)
13 [88770e41] (0/2) No match (V2 was not tested)
14 [48debea0] (0/2) No match (V2 was not tested)
15 [56edda9c] (0/2) No match (V2 was not tested)
16 [1792893d] (0/2) No match (V2 was not tested)

Track Peak [ CRC32 ] [W/O NULL] [ LOG ]
– 95,8 [73D605C5] [53D78AAB] CRC32
01 88,5 [8BAB2CF5] [213419E5]
02 80,6 [874FA48E] [B46EDA05]
03 60,7 [EC0E7ACB] [6F405EB4]
04 84,5 [0D2F3E70] [AB396DA1]
05 78,5 [1A615951] [83B0F0A0]
06 91,8 [FF322028] [3B2D16AD]
07 95,8 [667EED47] [1F65AF3F]
08 88,4 [7157F5D9] [E264C849]
09 78,8 [642CA81B] [7C582745]
10 95,2 [80C9293A] [6A949610]
11 86,1 [7088C2D8] [A8F55763]
12 91,1 [B502EFE4] [F4C2D24C]
13 86,2 [FB64F70A] [E53F7232]
14 95,5 [8AFCF3D5] [018A8941]
15 75,9 [4968B6F5] [AC66794E]
16 85,3 [6DBB2A6A] [E0592E35]

Jonathan Butler - Jonathan Butler (1987)

All thanks go to sergych

>>> Jonathan Butler in my Blog <<<

Download from icerbox.com: