Subcategories

Jonathan Butler - Living My Dream (2014)

Posted By: popsakov
Jonathan Butler - Living My Dream (2014)

Jonathan Butler - Living My Dream (2014)
EAC Rip | FLAC (Img) + Cue + Log ~ 317 Mb | MP3 CBR320 ~ 106 Mb
Scans (JPG, 600 dpi) ~ 126 Mb | RAR 5% Recovery
R&B, Funk, Soul, Crossover Jazz, Jazz-Funk, Smooth Jazz | Artistry Music #ART7041

Jonathan Butler's 22nd studio album, 2014's Living My Dream, showcases the South African-born singer/guitarist/songwriter's distinctive smooth jazz and R&B sound. Joining Butler here are such musical luminaries as bassist Marcus Miller, saxophonist Elan Trotman, guitarist/songwriter Dennis Dodd, Jr., and Butler's daughter, vocalist Jodie Butler, who duets with her father on "Night to Remember." Featured on the album is the song "Be Still," which Butler co-wrote with George Duke prior to the legendary keyboardist's passing in 2013. Also included is the leadoff single "African Breeze," originally written for the 1985 adventure-comedy Jewel of the Nile and reworked with a more contemporary flair by Butler for Living My Dream.
~ Matt Collar, All Music

***************

Jonathan Butler - Living My Dream (2014)

Track List:

01. African Breeze [0:04:07.08]
02. Living My Dream [0:04:01.69]
03. Be Still [0:04:48.41]
04. Let There Be Light [0:04:11.18]
05. Heart and Soul [0:03:36.60]
06. A Song For You [0:03:26.68]
07. Catembe [0:03:47.05]
08. A Night To Remember [0:03:44.02]
09. All About Love [0:04:04.13]
10. Sweet Serenade [0:04:37.68]
11. A Prayer [0:04:01.34]

Exact Audio Copy V1.1 from 23. June 2015

EAC extraction logfile from 7. May 2016, 12:47

Jonathan Butler / Living My Dream

Used drive : ATAPI iHAS124 D Adapter: 0 ID: 2

Read mode : Secure
Utilize accurate stream : Yes
Defeat audio cache : Yes
Make use of C2 pointers : No

Read offset correction : 6
Overread into Lead-In and Lead-Out : No
Fill up missing offset samples with silence : Yes
Delete leading and trailing silent blocks : No
Null samples used in CRC calculations : Yes
Used interface : Installed external ASPI interface

Used output format : User Defined Encoder
Selected bitrate : 1024 kBit/s
Quality : High
Add ID3 tag : Yes
Command line compressor : C:\Program Files (x86)\Exact Audio Copy\Flac\flac.exe
Additional command line options : -6 -V -T "ARTIST=%artist%" -T "TITLE=%title%" -T "ALBUM=%albumtitle%" -T "DATE=%year%" -T "TRACKNUMBER=%tracknr%" -T "GENRE=%genre%" -T "COMMENT=%comment%" -T "BAND=%albuminterpret%" -T "COMPOSER=%composer%" %haslyrics%–tag-from-file=LYRICS="%lyricsfile%"%haslyrics% -T "DISCNUMBER=%cdnumber%" -T "TOTALDISCS=%totalcds%" -T "TOTALTRACKS=%numtracks%" %hascover%–picture="%coverfile%"%hascover% %source% -o %dest%


TOC of the extracted CD

Track | Start | Length | Start sector | End sector
––––––––––––––––––––––––––––-
1 | 0:00.00 | 4:07.08 | 0 | 18532
2 | 4:07.08 | 4:01.69 | 18533 | 36676
3 | 8:09.02 | 4:48.41 | 36677 | 58317
4 | 12:57.43 | 4:11.18 | 58318 | 77160
5 | 17:08.61 | 3:36.60 | 77161 | 93420
6 | 20:45.46 | 3:26.68 | 93421 | 108938
7 | 24:12.39 | 3:47.05 | 108939 | 125968
8 | 27:59.44 | 3:44.02 | 125969 | 142770
9 | 31:43.46 | 4:04.13 | 142771 | 161083
10 | 35:47.59 | 4:37.68 | 161084 | 181926
11 | 40:25.52 | 4:01.34 | 181927 | 200035


Range status and errors

Selected range

Filename C:\mm\Jonathan Butler\2014 - Living My Dream [ART7041]\Jonathan Butler - Living My Dream.wav

Peak level 100.0 %
Extraction speed 3.2 X
Range quality 100.0 %
Test CRC 18E6967F
Copy CRC 18E6967F
Copy OK

No errors occurred


AccurateRip summary

Track 1 accurately ripped (confidence 13) [004E7F28] (AR v2)
Track 2 accurately ripped (confidence 13) [57D27CB7] (AR v2)
Track 3 accurately ripped (confidence 13) [A1729B85] (AR v2)
Track 4 accurately ripped (confidence 13) [94A675B4] (AR v2)
Track 5 accurately ripped (confidence 13) [DD44C8BA] (AR v2)
Track 6 accurately ripped (confidence 13) [C49AB4A5] (AR v2)
Track 7 accurately ripped (confidence 13) [D3F845AC] (AR v2)
Track 8 accurately ripped (confidence 13) [735C0D01] (AR v2)
Track 9 accurately ripped (confidence 13) [3F1B6E01] (AR v2)
Track 10 accurately ripped (confidence 13) [007B073A] (AR v2)
Track 11 accurately ripped (confidence 13) [2CCD0EE8] (AR v2)

All tracks accurately ripped

End of status report

foobar2000 1.2.6 / Dynamic Range Meter 1.1.1
log date: 2016-10-13 02:11:37

––––––––––––––––––––––––––––––––––––––––
Analyzed: Jonathan Butler / Living My Dream
––––––––––––––––––––––––––––––––––––––––

DR Peak RMS Duration Track
––––––––––––––––––––––––––––––––––––––––
DR8 -0.20 dB -9.46 dB 4:07 01-African Breeze
DR8 -0.20 dB -10.55 dB 4:02 02-Living My Dream
DR9 -0.20 dB -11.27 dB 4:49 03-Be Still
DR8 -0.20 dB -11.29 dB 4:11 04-Let There Be Light
DR8 -0.20 dB -9.45 dB 3:37 05-Heart and Soul
DR8 -0.20 dB -10.75 dB 3:27 06-A Song For You
DR9 -0.20 dB -10.91 dB 3:47 07-Catembe
DR8 -0.20 dB -10.34 dB 3:44 08-A Night To Remember
DR7 0.00 dB -10.40 dB 4:04 09-All About Love
DR9 -0.20 dB -11.65 dB 4:38 10-Sweet Serenade
DR9 -0.20 dB -11.94 dB 4:01 11-A Prayer
––––––––––––––––––––––––––––––––––––––––

Number of tracks: 11
Official DR value: DR8

Samplerate: 44100 Hz
Channels: 2
Bits per sample: 16
Bitrate: 952 kbps
Codec: FLAC
================================================================================

[CUETools log; Date: 13.10.2016 2:11:43; Version: 2.1.5]
[CTDB TOCID: qMhWGD4nkPH9T8E6oVWKMBULCK4-] found.
Track | CTDB Status
1 | (6/6) Accurately ripped
2 | (6/6) Accurately ripped
3 | (6/6) Accurately ripped
4 | (6/6) Accurately ripped
5 | (6/6) Accurately ripped
6 | (6/6) Accurately ripped
7 | (6/6) Accurately ripped
8 | (6/6) Accurately ripped
9 | (6/6) Accurately ripped
10 | (6/6) Accurately ripped
11 | (6/6) Accurately ripped
[AccurateRip ID: 00126264-009e9b42-940a6b0b] found.
Track [ CRC | V2 ] Status
01 [db5846f2|004e7f28] (00+14/14) Accurately ripped
02 [d6dd6115|57d27cb7] (00+14/14) Accurately ripped
03 [44fea553|a1729b85] (00+14/14) Accurately ripped
04 [925521f2|94a675b4] (00+14/14) Accurately ripped
05 [9c8060c1|dd44c8ba] (00+14/14) Accurately ripped
06 [b9b1f688|c49ab4a5] (00+14/14) Accurately ripped
07 [017b2e00|d3f845ac] (00+14/14) Accurately ripped
08 [2888febd|735c0d01] (00+14/14) Accurately ripped
09 [1079e710|3f1b6e01] (00+14/14) Accurately ripped
10 [88375c1a|007b073a] (00+14/14) Accurately ripped
11 [d1762a7d|2ccd0ee8] (00+14/14) Accurately ripped

Track Peak [ CRC32 ] [W/O NULL] [ LOG ]
– 100,0 [18E6967F] [26EE30EF] CRC32
01 97,7 [D033E2EF] [CA14357A]
02 97,7 [2537D0F9] [11DE26FD]
03 97,7 [149EBF69] [22FD98CC]
04 97,7 [9A633A55] [7F22A822]
05 97,7 [78A18F9E] [594FC0AF]
06 97,7 [E91DA928] [48707462]
07 97,7 [7D407E57] [A3E608F2]
08 97,7 [0B25C3C5] [ECB41874]
09 100,0 [E9F09A88] [40E28170]
10 97,7 [EAEDDEED] [F6E959E8]
11 97,7 [D2DDB34F] [F1E361D1]

Jonathan Butler - Living My Dream (2014)

Jonathan Butler - Living My Dream (2014)

See also:
Jonathan Butler - Heal Our Land (1990) {Japanese Edition}
Jonathan Butler - Story Of Life (1999)
Jonathan Butler - The Source (2000)

All thanks go to sergych

> Visit my blog <

Download: