Subcategories

Jonathan Butler - Story Of Life (1999)

Posted By: popsakov
Jonathan Butler - Story Of Life (1999)

Jonathan Butler - Story Of Life (1999)
EAC Rip | FLAC (Img) + Cue + Log ~ 309 Mb | MP3 CBR320 ~ 106 Mb
Scans (JPG, 600 dpi) ~ 69 Mb | RAR 5% Recovery
R&B, Funk, Soul, Smooth Jazz | N-Coded Music / Warlock Records #NC-4203-2

Jonathan Butler's Story of Life focuses on the South African singer/guitarist's vocal and songwriting skills. The album's smooth atmosphere is enhanced by Butler's backing band, which features players like Fourplay bassist Nathan East and pianist George Duke; this silky style is especially evident on romantic tracks like "Through It All," "So in Love," and "Suite 830," which also features saxophonist Candy Dulfer.
~ Heather Phares, All Music

***************

Jonathan Butler - Story Of Life (1999)

Track List:

01. Story Of Life [0:03:47.47]
02. Let's Stand Together [0:04:01.65]
03. What Would You Do For Love? [0:05:07.63]
04. After All This Time [0:04:53.45]
05. Suite 830 [0:04:22.15]
06. Can't Let Go [0:04:39.72]
07. Through It All [0:04:24.20]
08. Following The Light [0:04:59.28]
09. Sunset Ride [0:03:59.30]
10. So In Love [0:04:00.15]

Exact Audio Copy V1.1 from 23. June 2015

EAC extraction logfile from 3. January 2016, 1:13

Jonathan Butler / Story Of Life

Used drive : ATAPI iHAS124 D Adapter: 0 ID: 2

Read mode : Secure
Utilize accurate stream : Yes
Defeat audio cache : Yes
Make use of C2 pointers : No

Read offset correction : 6
Overread into Lead-In and Lead-Out : No
Fill up missing offset samples with silence : Yes
Delete leading and trailing silent blocks : No
Null samples used in CRC calculations : Yes
Used interface : Installed external ASPI interface

Used output format : User Defined Encoder
Selected bitrate : 1024 kBit/s
Quality : High
Add ID3 tag : Yes
Command line compressor : C:\Program Files (x86)\Exact Audio Copy\Flac\flac.exe
Additional command line options : -6 -V -T "ARTIST=%artist%" -T "TITLE=%title%" -T "ALBUM=%albumtitle%" -T "DATE=%year%" -T "TRACKNUMBER=%tracknr%" -T "GENRE=%genre%" -T "COMMENT=%comment%" -T "BAND=%albuminterpret%" -T "COMPOSER=%composer%" %haslyrics%–tag-from-file=LYRICS="%lyricsfile%"%haslyrics% -T "DISCNUMBER=%cdnumber%" -T "TOTALDISCS=%totalcds%" -T "TOTALTRACKS=%numtracks%" %hascover%–picture="%coverfile%"%hascover% %source% -o %dest%


TOC of the extracted CD

Track | Start | Length | Start sector | End sector
––––––––––––––––––––––––––––-
1 | 0:00.00 | 3:47.47 | 0 | 17071
2 | 3:47.47 | 4:01.65 | 17072 | 35211
3 | 7:49.37 | 5:07.63 | 35212 | 58299
4 | 12:57.25 | 4:53.45 | 58300 | 80319
5 | 17:50.70 | 4:22.15 | 80320 | 99984
6 | 22:13.10 | 4:39.72 | 99985 | 120981
7 | 26:53.07 | 4:24.20 | 120982 | 140801
8 | 31:17.27 | 4:59.28 | 140802 | 163254
9 | 36:16.55 | 3:59.30 | 163255 | 181209
10 | 40:16.10 | 4:00.15 | 181210 | 199224


Range status and errors

Selected range

Filename C:\mm\Jonathan Butler\1999 - Story Of Life [NC-4203-2]\Jonathan Butler - Story Of Life.wav

Peak level 95.8 %
Extraction speed 8.2 X
Range quality 99.9 %
Test CRC 196C497C
Copy CRC 196C497C
Copy OK

No errors occurred


AccurateRip summary

Track 1 cannot be verified as accurate (confidence 4) [878D4E50], AccurateRip returned [F3015EE5] (AR v2)
Track 2 cannot be verified as accurate (confidence 4) [C4193CF7], AccurateRip returned [BC4E356A] (AR v2)
Track 3 cannot be verified as accurate (confidence 4) [2687CD9A], AccurateRip returned [FF9FE397] (AR v2)
Track 4 cannot be verified as accurate (confidence 4) [9A8F4D07], AccurateRip returned [AADACA49] (AR v2)
Track 5 cannot be verified as accurate (confidence 5) [54CF8CD5], AccurateRip returned [21B3BB5D] (AR v2)
Track 6 cannot be verified as accurate (confidence 4) [B7D86BD4], AccurateRip returned [A39921C1] (AR v2)
Track 7 cannot be verified as accurate (confidence 4) [B5DE0A73], AccurateRip returned [565B716E] (AR v2)
Track 8 cannot be verified as accurate (confidence 4) [8E14E4EE], AccurateRip returned [E34A25B7] (AR v2)
Track 9 cannot be verified as accurate (confidence 5) [00D26F0D], AccurateRip returned [0D9C54C0] (AR v2)
Track 10 cannot be verified as accurate (confidence 5) [A83ADE2C], AccurateRip returned [4CC0DB9A] (AR v2)

No tracks could be verified as accurate
You may have a different pressing from the one(s) in the database

End of status report

foobar2000 1.2.6 / Dynamic Range Meter 1.1.1
log date: 2016-08-08 09:54:21

––––––––––––––––––––––––––––––––––––––––
Analyzed: Jonathan Butler / Story Of Life
––––––––––––––––––––––––––––––––––––––––

DR Peak RMS Duration Track
––––––––––––––––––––––––––––––––––––––––
DR9 -0.50 dB -12.38 dB 3:48 01-Story Of Life
DR10 -0.38 dB -12.51 dB 4:02 02-Let's Stand Together
DR9 -0.60 dB -11.98 dB 5:08 03-What Would You Do For Love?
DR10 -0.36 dB -12.55 dB 4:54 04-After All This Time
DR10 -0.36 dB -11.66 dB 4:22 05-Suite 830
DR10 -0.53 dB -12.71 dB 4:40 06-Can't Let Go
DR8 -0.37 dB -11.38 dB 4:24 07-Through It All
DR9 -0.36 dB -11.66 dB 4:59 08-Following The Light
DR11 -0.36 dB -12.91 dB 3:59 09-Sunset Ride
DR10 -0.36 dB -12.84 dB 4:00 10-So In Love
––––––––––––––––––––––––––––––––––––––––

Number of tracks: 10
Official DR value: DR10

Samplerate: 44100 Hz
Channels: 2
Bits per sample: 16
Bitrate: 930 kbps
Codec: FLAC
================================================================================

[CUETools log; Date: 08.08.2016 9:54:21; Version: 2.1.5]
HDCD: peak extend: yes, transient filter: none, gain: none
[CTDB TOCID: FZa76WbuaaYcLEbVTJ3Q0eSb_kI-] found.
Track | CTDB Status
1 | (8/8) Accurately ripped
2 | (8/8) Accurately ripped
3 | (8/8) Accurately ripped
4 | (8/8) Accurately ripped
5 | (8/8) Accurately ripped
6 | (8/8) Accurately ripped
7 | (8/8) Accurately ripped
8 | (8/8) Accurately ripped
9 | (8/8) Accurately ripped
10 | (8/8) Accurately ripped
[AccurateRip ID: 0010baab-008697ab-8f0a600a] found.
Track [ CRC | V2 ] Status
01 [79ecf122|878d4e50] (00+02/17) Accurately ripped
02 [cf6b9b6f|c4193cf7] (00+02/17) Accurately ripped
03 [124f4c30|2687cd9a] (00+02/17) Accurately ripped
04 [8591fc6a|9a8f4d07] (00+02/17) Accurately ripped
05 [f79e4a7c|54cf8cd5] (00+02/18) Accurately ripped
06 [d10d3868|b7d86bd4] (00+02/17) Accurately ripped
07 [cbef636d|b5de0a73] (00+02/17) Accurately ripped
08 [440af302|8e14e4ee] (00+02/17) Accurately ripped
09 [add625ff|00d26f0d] (00+02/18) Accurately ripped
10 [003c1e5e|a83ade2c] (00+02/18) Accurately ripped
Offsetted by -664:
01 [20b87b6c] (02/17) Accurately ripped
02 [416c5168] (02/17) Accurately ripped
03 [7000048c] (02/17) Accurately ripped
04 [3f83a4e1] (02/17) Accurately ripped
05 [69a8b7ce] (02/18) Accurately ripped
06 [92b04289] (02/17) Accurately ripped
07 [56bcfaf4] (02/17) Accurately ripped
08 [b4f561d7] (02/17) Accurately ripped
09 [495e7575] (02/18) Accurately ripped
10 [557d8c31] (02/18) Accurately ripped
Offsetted by -14:
01 [f3015ee5] (04/17) Accurately ripped
02 [bc4e356a] (04/17) Accurately ripped
03 [ff9fe397] (04/17) Accurately ripped
04 [aadaca49] (04/17) Accurately ripped
05 [bfcd5d80] (04/18) Accurately ripped
06 [a39921c1] (04/17) Accurately ripped
07 [565b716e] (04/17) Accurately ripped
08 [e34a25b7] (04/17) Accurately ripped
09 [b653025f] (04/18) Accurately ripped
10 [a072aacd] (04/18) Accurately ripped

Track Peak [ CRC32 ] [W/O NULL] [ LOG ]
– 95,8 [196C497C] [7FCC8C3F] CRC32
01 94,4 [13F5A02D] [B1B94FBF]
02 95,6 [34728064] [D5A53612]
03 93,3 [3CD55ED6] [8869FF06]
04 95,8 [94FD16E1] [25DFE000]
05 95,8 [D53245F1] [7EA591F3]
06 94,0 [4B6D0D9F] [E02646B1]
07 95,8 [71C2AE83] [E9792D28]
08 95,8 [4334972E] [50724619]
09 95,8 [4F1BA788] [E4D70107]
10 95,8 [20BE7C07] [74F66035]

Jonathan Butler - Story Of Life (1999)

Jonathan Butler - Story Of Life (1999)

See also:
Jonathan Butler - Heal Our Land (1990) {Japanese Edition}
Jonathan Butler - The Source (2000)

All thanks go to sergych

Visit my blog!

Download: