Tags
Language
Tags

Jonathan Rees, Scottish Ensemble - Johann Sebastian Bach: Brandenburg Concertos, Violin Concertos (1998)

Posted By: ArlegZ
Jonathan Rees, Scottish Ensemble - Johann Sebastian Bach: Brandenburg Concertos, Violin Concertos (1998)

Jonathan Rees, Scottish Ensemble - Bach: Brandenburg Concertos, Violin Concertos (1998)
EAC | FLAC | Image (Cue & Log) ~ 750 Mb | Total time: 76:54+69:21 | Scans included
Classical | Label: Virgin Classics | # 5 61403 2 | Recorded: 1990-1992

This is a perfectly reasonable recording of Bach's works for violin and orchestra and anyone who has not heard the works before will no doubt find them more than adequate. Violinist and leader Jonathan Rees is a fine player with a sweet tone and a warm style and he takes the strings of the Scottish Ensemble through thoroughly professional performances of the works. When joined by spry violinist Jane Murdoch in the Concerto for two violins and plangent oboist Nicholas Daniel in the Concerto for violin and oboe, Rees proves himself a graceful and considerate partner. Virgin's early-'90s sound is a bit thin on top but still clean and clear.
–James Leonard

Performer:
Scottish Ensemble
Jonathan Rees, violin & director

Tracklist:
CD1:
Brandenburg Concerto No. 1 in F major, BWV 1046
01. I. [Allegro]
02. II. Adagio
03. III. Allegro
04. IV. Menuet - Trio I - Polacca - Trio II
Brandenburg Concerto No. 2 in F major, BWV 1047
05. I. [Allegro]
06. II. Andante
07. III. Allegro assai
Brandenburg Concerto No. 3 in G major, BWV 1048
08. I. [Allegro]
09. II. Adagio - Allegro
Brandenburg Concerto No. 4 in G major, BWV 1049
10. I. Allegro
11. II. Andante
12. III. Presto
Violin Concerto in E major, BWV1042
13. I. Allegro
14. II. Adagio
15. III. Allegro assai
CD2:
Brandenburg Concerto No. 5 in D major, BWV 1050
01. I. Allegro
02. II. Affetuoso
03. III. Allegro
Brandenburg Concerto No. 6 in B flat major, BWV 1051
04. I. [Allegro]
05. II. Adagio ma non tanto
06. III. Allegro
Violin Concerto in A minor, BWV1041
07. I. [Allegro]
08. II. Andante
09. III. Allegro assai
Double Violin Concerto in D minor, BWV1043
10. I. Vivace
11. II. Largo ma non tanto
12. III. Allegro


Exact Audio Copy V1.6 from 23. October 2020

EAC extraction logfile from 11. November 2021, 16:18

Jonathan Rees, Scottish Ensemble / Bach - Brandenburg Concertos & Violin Concertos CD1

Used drive : PIONEER DVD-RW DVR-218L Adapter: 1 ID: 0

Read mode : Secure
Utilize accurate stream : Yes
Defeat audio cache : Yes
Make use of C2 pointers : No

Read offset correction : 6
Overread into Lead-In and Lead-Out : No
Fill up missing offset samples with silence : Yes
Delete leading and trailing silent blocks : No
Null samples used in CRC calculations : Yes
Used interface : Native Win32 interface for Win NT & 2000

Used output format : User Defined Encoder
Selected bitrate : 128 kBit/s
Quality : High
Add ID3 tag : No
Command line compressor : C:\Program Files\Exact Audio Copy\Flac\flac.exe
Additional command line options : -V -8 -T "Date=%year%" -T "Genre=%genre%" %source%


TOC of the extracted CD

Track | Start | Length | Start sector | End sector
––––––––––––––––––––––––––––-
1 | 0:00.32 | 4:10.73 | 32 | 18854
2 | 4:11.30 | 3:50.00 | 18855 | 36104
3 | 8:01.30 | 4:10.37 | 36105 | 54891
4 | 12:11.67 | 7:38.00 | 54892 | 89241
5 | 19:49.67 | 5:17.38 | 89242 | 113054
6 | 25:07.30 | 3:54.02 | 113055 | 130606
7 | 29:01.32 | 2:54.23 | 130607 | 143679
8 | 31:55.55 | 5:50.25 | 143680 | 169954
9 | 37:46.05 | 5:24.40 | 169955 | 194294
10 | 43:10.45 | 7:26.47 | 194295 | 227791
11 | 50:37.17 | 3:41.38 | 227792 | 244404
12 | 54:18.55 | 5:03.62 | 244405 | 267191
13 | 59:22.42 | 7:43.13 | 267192 | 301929
14 | 67:05.55 | 7:01.50 | 301930 | 333554
15 | 74:07.30 | 2:47.15 | 333555 | 346094


Range status and errors

Selected range

Filename C:\ArlegZ\Bach - Brandenburg Concertos & Violin Concertos - Jonathan Rees CD1.wav

Peak level 100.0 %
Extraction speed 2.1 X
Range quality 100.0 %
Test CRC BB954463
Copy CRC BB954463
Copy OK

No errors occurred


AccurateRip summary

Track 1 accurately ripped (confidence 4) [9FBF3128] (AR v2)
Track 2 accurately ripped (confidence 4) [FB240995] (AR v2)
Track 3 accurately ripped (confidence 4) [8F57D85C] (AR v2)
Track 4 accurately ripped (confidence 4) [98C234C0] (AR v2)
Track 5 accurately ripped (confidence 4) [72E9A97E] (AR v2)
Track 6 accurately ripped (confidence 4) [1958716A] (AR v2)
Track 7 accurately ripped (confidence 4) [E6D78A2D] (AR v2)
Track 8 accurately ripped (confidence 4) [543BD800] (AR v2)
Track 9 accurately ripped (confidence 4) [9A6910D7] (AR v2)
Track 10 accurately ripped (confidence 4) [CB9002BE] (AR v2)
Track 11 accurately ripped (confidence 4) [FDCC6288] (AR v2)
Track 12 accurately ripped (confidence 4) [3B776109] (AR v2)
Track 13 accurately ripped (confidence 4) [61B0C62C] (AR v2)
Track 14 accurately ripped (confidence 4) [404C5101] (AR v2)
Track 15 accurately ripped (confidence 4) [B4011122] (AR v2)

All tracks accurately ripped

End of status report

–– CUETools DB Plugin V2.1.6

[CTDB TOCID: gCJc8aU76_4YCNQItWREv2xA0No-] found
Submit result: gCJc8aU76_4YCNQItWREv2xA0No- has been confirmed
Track | CTDB Status
1 | (18/18) Accurately ripped
2 | (18/18) Accurately ripped
3 | (18/18) Accurately ripped
4 | (18/18) Accurately ripped
5 | (17/18) Accurately ripped
6 | (17/18) Accurately ripped
7 | (18/18) Accurately ripped
8 | (17/18) Accurately ripped
9 | (17/18) Accurately ripped
10 | (17/18) Accurately ripped
11 | (17/18) Accurately ripped
12 | (18/18) Accurately ripped
13 | (18/18) Accurately ripped
14 | (18/18) Accurately ripped
15 | (17/18) Accurately ripped


==== Log checksum DA4241DC3AE0594CF5AB2CE502E747151A4DBB61805118116691C77D1C700E1A ====


Exact Audio Copy V1.6 from 23. October 2020

EAC extraction logfile from 11. November 2021, 17:31

Jonathan Rees, Scottish Ensemble / Bach - Brandenburg Concertos & Violin Concertos CD2

Used drive : PIONEER DVD-RW DVR-218L Adapter: 1 ID: 0

Read mode : Secure
Utilize accurate stream : Yes
Defeat audio cache : Yes
Make use of C2 pointers : No

Read offset correction : 6
Overread into Lead-In and Lead-Out : No
Fill up missing offset samples with silence : Yes
Delete leading and trailing silent blocks : No
Null samples used in CRC calculations : Yes
Used interface : Native Win32 interface for Win NT & 2000

Used output format : User Defined Encoder
Selected bitrate : 128 kBit/s
Quality : High
Add ID3 tag : No
Command line compressor : C:\Program Files\Exact Audio Copy\Flac\flac.exe
Additional command line options : -V -8 -T "Date=%year%" -T "Genre=%genre%" %source%


TOC of the extracted CD

Track | Start | Length | Start sector | End sector
––––––––––––––––––––––––––––-
1 | 0:00.32 | 9:57.70 | 32 | 44876
2 | 9:58.27 | 5:59.40 | 44877 | 71841
3 | 15:57.67 | 5:01.38 | 71842 | 94454
4 | 20:59.30 | 6:30.10 | 94455 | 123714
5 | 27:29.40 | 4:41.32 | 123715 | 144821
6 | 32:10.72 | 5:41.28 | 144822 | 170424
7 | 37:52.25 | 4:28.02 | 170425 | 190526
8 | 42:20.27 | 7:42.33 | 190527 | 225209
9 | 50:02.60 | 3:57.72 | 225210 | 243056
10 | 54:00.57 | 3:49.60 | 243057 | 260291
11 | 57:50.42 | 6:50.33 | 260292 | 291074
12 | 64:41.00 | 4:40.60 | 291075 | 312134


Range status and errors

Selected range

Filename C:\ArlegZ\Bach - Brandenburg Concertos & Violin Concertos - Jonathan Rees CD2.wav

Peak level 100.0 %
Extraction speed 2.0 X
Range quality 100.0 %
Test CRC B5882A29
Copy CRC B5882A29
Copy OK

No errors occurred


AccurateRip summary

Track 1 accurately ripped (confidence 2) [3797BE47] (AR v2)
Track 2 accurately ripped (confidence 2) [2C10B049] (AR v2)
Track 3 accurately ripped (confidence 2) [1F7637B4] (AR v2)
Track 4 accurately ripped (confidence 2) [FBB34D3F] (AR v2)
Track 5 accurately ripped (confidence 2) [786E1143] (AR v2)
Track 6 accurately ripped (confidence 2) [C6B0B108] (AR v2)
Track 7 accurately ripped (confidence 2) [78C49213] (AR v2)
Track 8 accurately ripped (confidence 2) [0FF93FF4] (AR v2)
Track 9 accurately ripped (confidence 2) [A49E38E6] (AR v2)
Track 10 accurately ripped (confidence 2) [79F1D2C3] (AR v2)
Track 11 accurately ripped (confidence 2) [5F1A4003] (AR v2)
Track 12 accurately ripped (confidence 2) [C1A65BA3] (AR v2)

All tracks accurately ripped

End of status report

–– CUETools DB Plugin V2.1.6

[CTDB TOCID: 3xAtEgEGdF_ZRkSuIXiDUiac5Ak-] found
Submit result: 3xAtEgEGdF_ZRkSuIXiDUiac5Ak- has been confirmed
Track | CTDB Status
1 | (17/17) Accurately ripped
2 | (17/17) Accurately ripped
3 | (17/17) Accurately ripped
4 | (17/17) Accurately ripped
5 | (17/17) Accurately ripped
6 | (15/17) Accurately ripped
7 | (17/17) Accurately ripped
8 | (17/17) Accurately ripped
9 | (17/17) Accurately ripped
10 | (16/17) Accurately ripped
11 | (17/17) Accurately ripped
12 | (17/17) Accurately ripped


==== Log checksum 78B1197085ADD6BC6EC7E13A8A46BA62BF70BAE42CA9B7FB0FD7F901FCA13CAA ====

Jonathan Rees, Scottish Ensemble - Johann Sebastian Bach: Brandenburg Concertos, Violin Concertos (1998)