Subcategories

Joni Mitchell - Studio Albums 1968-1979 (2012) [10CD Box Set] Re-up

Posted By: v3122
Joni Mitchell - Studio Albums 1968-1979 (2012) [10CD Box Set] Re-up

Joni Mitchell - Studio Albums 1968-1979 (2012)
EAC Rip | Flac(Image) + Cue + Log & MP3 CBR 320Kbps
~ 2446 or 1158 Mb | Scans(png) -> 935 Mb | Box Art -> 60 MB
10CD | 2012 | Warner Music/Rhino Records, 8122797178
Folk-Rock / Folk-Jazz / Jazz / Pop

One has to wonder why this box, Joni Mitchell's The Studio Albums 1968-1979, was issued only in the European market. During this period –and some would argue even after – Mitchell had one of most consistent quality runs in pop history. She is one of the most influential songwriters and recording artists of the 20th century. Included here are Song to a Seagull, Clouds, Ladies of the Canyon, Blue, For the Roses, Court and Spark, Hissing of Summer Lawns, Hejira, the double album Don Juan's Reckless Daughter, and Mingus. The first four are regarded as her "singer/songwriter" era offerings, the next one (For the Roses) details her crossing over into pop success (without compromise, of course), and the final five as her "jazz period," an era that lasted longer than her tenure with Warner Bros, and into her years at Geffen. What's remarkable is that they are all indelibly Mitchell. From the earliest, her vocal phrasing and guitar playing were just off enough to underscore the depth and poetry in her lyrics. By the time she reached For the Roses, she was already inventing new melodic and rhythmic paths. By Hissing of Summer Lawns, Hejira, and especially on Don Juan's Reckless Daughter, she was off-road, cutting a new swath of rhythmic invention in popular music, utilizing jazz syncopation and harmonics, Brazilian and Latin rhythms, and even modal elements that seemed to make time, melody, and lyric concerns more elastic. There is a great anecdote from Robbie Robertson about Mitchell asking the Band to back her at the Watkins Glen rock festival. They were unable to play with her because only drummer Levon Helm could flow with her sense of groove. All these albums feature their own mini-LP sleeves (no fancy paper, sorry). There is no bonus material of any kind included. The art is not so much redone as extremely reduced, making most of the print small enough that reading can be difficult. There is no liner essay in the package, either. The plus – in addition to a stellar body of music – is that the price is right; each album prices out to considerably less than these recordings sell for individually.

by Thom Jurek
Joni Mitchell - Studio Albums 1968-1979 (2012) [10CD Box Set] Re-up

Joni Mitchell - Studio Albums 1968-1979 (2012):

Joni Mitchell - Studio Albums 1968-1979 (2012) [10CD Box Set] Re-up

CD1: Joni Mitchell - Song To A Seagull (1968)
EAC Rip | Flac(Image) + Cue + Log & MP3 CBR 320Kbps
~ 236 or 108 Mb | Scans(png) -> 93 Mb
Folk-Rock / Folk-Jazz / Jazz / Pop

Joni Mitchell's debut release is a concept album. Side one, subtitled "I Came to the City," generally exhibits songs about urban subjects that are often dour or repressed in some way. "Out of the City and Down to the Seaside," by contrast, is a celebration of nature and countryside, mostly containing selections of a charming, positive, or more outgoing nature. What sets this release apart from those of other confession-style singer/songwriters of the time is the craft, subtlety, and evocative power of Mitchell's lyrics and harmonic style. Numbers such as "Marcie," "Michael From Mountains," "The Dawntreader," and "The Pirate of Penance" effectively utilize sophisticated chord progressions rarely found in this genre. Verses are substantive and highly charged, exhibiting careful workmanship. "Song to a Seagull" has graceful and vivid lyrics about the joys of freedom set to a haunting, wide-ranging vocal line. Conversely, "Cactus Tree" explores the downside of a no-strings-attached approach to life, the fear of committing to a relationship (ironically wedding these words to a hopeful melody and pulsating guitar texture). "Marcie" utilizes poignant, twisting music set to desolately lonely lyrics about a jilted woman; the recurrent use of red and green imagery in the verses is especially clever. Character studies such as "I Had a King" and "Nathan la Franeer" are painfully bleak in contrast to the lithe domestic scene of "Sisotowbell Lane" and the winsomely reserved love song "Michael From Mountains." Unusual in her oeuvre are the overlapping dialogue prose manner of "The Pirate of Penance" and the jaunty honky tonk stylings of "Night in the City." Mitchell sings in a light, gossamer, at times diffident manner; vocal harmony is sparingly employed here. David Crosby's production is simple and effective. This excellent debut is well worth hearing.

by David Cleary
Tracklist:

01. I Had A King 03:37
02. Michael From Mountains 03:41
03. Night In The City 02:29
04. Marcie 04:35
05. Nathan La Franeer 03:20
06. Sisotowbell Lane 04:04
07. The Dawntreader 05:04
08. The Pirate Of Penance 02:44
09. Song To A Seagull 03:51
10. Cactus Tree 04:38

Exact Audio Copy V1.0 beta 3 from 29. August 2011

EAC extraction logfile from 14. March 2013, 20:11

Joni Mitchell / Song To A Seagull

Used drive : PLEXTOR BD-R PX-B950SA Adapter: 6 ID: 0

Read mode : Secure
Utilize accurate stream : Yes
Defeat audio cache : Yes
Make use of C2 pointers : No

Read offset correction : 6
Overread into Lead-In and Lead-Out : No
Fill up missing offset samples with silence : Yes
Delete leading and trailing silent blocks : No
Null samples used in CRC calculations : Yes
Used interface : Native Win32 interface for Win NT & 2000

Used output format : Internal WAV Routines
Sample format : 44.100 Hz; 16 Bit; Stereo


TOC of the extracted CD

Track | Start | Length | Start sector | End sector
––––––––––––––––––––––––––––-
1 | 0:00.00 | 3:37.32 | 0 | 16306
2 | 3:37.32 | 3:41.13 | 16307 | 32894
3 | 7:18.45 | 2:29.65 | 32895 | 44134
4 | 9:48.35 | 4:35.22 | 44135 | 64781
5 | 14:23.57 | 3:20.53 | 64782 | 79834
6 | 17:44.35 | 4:04.70 | 79835 | 98204
7 | 21:49.30 | 5:04.12 | 98205 | 121016
8 | 26:53.42 | 2:44.25 | 121017 | 133341
9 | 29:37.67 | 3:51.40 | 133342 | 150706
10 | 33:29.32 | 4:38.40 | 150707 | 171596


Range status and errors

Selected range

Filename C:\Users\Meijin\Desktop\Lossless Rip by ALLexxess\Joni Mitchell\2012 The Studio Albums 1968-1979 (10CD Box Set Rhino Records)\1968 Song To A Seagull\Joni Mitchell - Song To A Seagull.wav

Peak level 97.2 %
Extraction speed 6.6 X
Range quality 100.0 %
Test CRC B6F0F885
Copy CRC B6F0F885
Copy OK

No errors occurred


AccurateRip summary

Track 1 accurately ripped (confidence 2) [99BB04EF] (AR v1)
Track 2 accurately ripped (confidence 2) [09535472] (AR v1)
Track 3 accurately ripped (confidence 2) [4CA902BB] (AR v1)
Track 4 accurately ripped (confidence 2) [CC83F4FF] (AR v1)
Track 5 accurately ripped (confidence 2) [A2C2DCD2] (AR v1)
Track 6 accurately ripped (confidence 2) [15E79979] (AR v1)
Track 7 accurately ripped (confidence 2) [ECA2BF43] (AR v1)
Track 8 accurately ripped (confidence 2) [50EB4EDF] (AR v1)
Track 9 accurately ripped (confidence 2) [8F908638] (AR v1)
Track 10 accurately ripped (confidence 2) [57199F2F] (AR v1)

All tracks accurately ripped

End of status report

foobar2000 1.1.18 / Dynamic Range Meter 1.1.1
log date: 2013-03-19 19:01:39

––––––––––––––––––––––––––––––––––––––––
Analyzed: Joni Mitchell / Song To A Seagull
––––––––––––––––––––––––––––––––––––––––

DR Peak RMS Duration Track
––––––––––––––––––––––––––––––––––––––––
DR9 -0.55 dB -12.80 dB 3:37 01-I Had A King
DR9 -1.53 dB -14.58 dB 3:41 02-Michael From Mountains
DR8 -0.69 dB -10.87 dB 2:30 03-Night In The City
DR10 -0.67 dB -13.97 dB 4:35 04-Marcie
DR11 -0.80 dB -16.04 dB 3:21 05-Nathan La Franeer
DR12 -0.82 dB -17.24 dB 4:05 06-Sisotowbell Lane
DR10 -0.39 dB -14.69 dB 5:04 07-The Dawntreader
DR9 -0.24 dB -12.89 dB 2:44 08-The Pirate Of Penance
DR11 -0.30 dB -15.90 dB 3:52 09-Song To A Seagull
DR8 -0.30 dB -11.87 dB 4:39 10-Cactus Tree
––––––––––––––––––––––––––––––––––––––––

Number of tracks: 10
Official DR value: DR10

Samplerate: 44100 Hz
Channels: 2
Bits per sample: 16
Bitrate: 776 kbps
Codec: FLAC

=================

Joni Mitchell - Studio Albums 1968-1979 (2012) [10CD Box Set] Re-up

CD2: Joni Mitchell - Clouds (1969)
EAC Rip | Flac(Image) + Cue + Log & MP3 CBR 320Kbps
~ 225 or 102 Mb | Scans(png) -> 79 Mb
Folk-Rock / Folk-Jazz / Jazz / Pop

Clouds is a stark stunner, a great leap forward for Joni Mitchell. Vocals here are more forthright and assured than on her debut and exhibit a remarkable level of subtle expressiveness. Guitar alone is used in accompaniment, and the variety of playing approaches and sounds gotten here is most impressive. "The Fiddle and the Drum," a protest song that imaginatively compares the Vietnam-era warmongering U.S. government to a bitter friend, dispenses with instrumental accompaniment altogether. The sketches presented of lovers by turns depressive ("Tin Angel"), roguish ("That Song About the Midway"), and faithless ("The Gallery") are vividly memorable. Forthright lyrics about the unsureness of new love ("I Don't Know Where I Stand"), misuse of the occult ("Roses Blue"), and mental illness ("I Think I Understand") are very striking. Mitchell's classic singer/songwriter standards "Chelsea Morning" and "Both Sides Now" respectively receive energetically vibrant and warmly thoughtful performances. Imaginatively unusual and subtle harmonies abound here, never more so in her body of work than on the remarkable "Songs to Aging Children Come," which sets floridly impressionistic lyrics to a lovely tune that is supported by perhaps the most remarkably sophisticated chord sequence in all of pop music. Mitchell's riveting self-portrait on the album's cover is a further asset. This essential release is a must-listen.

by David Cleary
Tracklist:

01. Tin Angel 04:09
02. Chelsea Morning 02:35
03. I Don't Know Where I Stand 03:13
04. That Song About The Midway 04:37
05. Roses Blue 03:52
06. The Gallery 04:12
07. I Think I Understand 04:27
08. Songs To Aging Children Come 03:10
09. The Fiddle And The Drum 02:49
10. Both Sides, Now 04:34

Exact Audio Copy V1.0 beta 3 from 29. August 2011

EAC extraction logfile from 14. March 2013, 19:42

Joni Mitchell / Clouds

Used drive : PLEXTOR BD-R PX-B950SA Adapter: 6 ID: 0

Read mode : Secure
Utilize accurate stream : Yes
Defeat audio cache : Yes
Make use of C2 pointers : No

Read offset correction : 6
Overread into Lead-In and Lead-Out : No
Fill up missing offset samples with silence : Yes
Delete leading and trailing silent blocks : No
Null samples used in CRC calculations : Yes
Used interface : Native Win32 interface for Win NT & 2000

Used output format : Internal WAV Routines
Sample format : 44.100 Hz; 16 Bit; Stereo


TOC of the extracted CD

Track | Start | Length | Start sector | End sector
––––––––––––––––––––––––––––-
1 | 0:00.00 | 4:09.10 | 0 | 18684
2 | 4:09.10 | 2:35.07 | 18685 | 30316
3 | 6:44.17 | 3:13.30 | 30317 | 44821
4 | 9:57.47 | 4:37.55 | 44822 | 65651
5 | 14:35.27 | 3:52.30 | 65652 | 83081
6 | 18:27.57 | 4:12.13 | 83082 | 101994
7 | 22:39.70 | 4:27.40 | 101995 | 122059
8 | 27:07.35 | 3:10.05 | 122060 | 136314
9 | 30:17.40 | 2:49.50 | 136315 | 149039
10 | 33:07.15 | 4:34.45 | 149040 | 169634


Range status and errors

Selected range

Filename C:\Users\Meijin\Desktop\Lossless Rip by ALLexxess\Joni Mitchell\2012 The Studio Albums 1968-1979 (10CD Box Set Rhino Records)\1969 Clouds\Joni Mitchell - Clouds.wav

Peak level 96.6 %
Extraction speed 6.6 X
Range quality 100.0 %
Test CRC 568FF2AA
Copy CRC 568FF2AA
Copy OK

No errors occurred


AccurateRip summary

Track 1 accurately ripped (confidence 3) [6A0A002F] (AR v1)
Track 2 accurately ripped (confidence 3) [AAB39077] (AR v1)
Track 3 accurately ripped (confidence 3) [D7F050BF] (AR v1)
Track 4 accurately ripped (confidence 3) [E5128776] (AR v1)
Track 5 accurately ripped (confidence 3) [8FF9865B] (AR v1)
Track 6 accurately ripped (confidence 3) [ABA719D4] (AR v1)
Track 7 accurately ripped (confidence 3) [B1D4727E] (AR v1)
Track 8 accurately ripped (confidence 3) [9B2EEBEA] (AR v1)
Track 9 accurately ripped (confidence 3) [CAB2B19D] (AR v1)
Track 10 accurately ripped (confidence 3) [EEEC3AED] (AR v1)

All tracks accurately ripped

End of status report

foobar2000 1.1.18 / Dynamic Range Meter 1.1.1
log date: 2013-03-19 19:02:01

––––––––––––––––––––––––––––––––––––––––
Analyzed: Joni Mitchell / Clouds
––––––––––––––––––––––––––––––––––––––––

DR Peak RMS Duration Track
––––––––––––––––––––––––––––––––––––––––
DR10 -0.30 dB -15.36 dB 4:09 01-Tin Angel
DR8 -0.30 dB -10.83 dB 2:35 02-Chelsea Morning
DR10 -0.34 dB -14.68 dB 3:13 03-I Don't Know Where I Stand
DR9 -0.30 dB -11.88 dB 4:38 04-That Song About The Midway
DR9 -0.30 dB -12.84 dB 3:52 05-Roses Blue
DR8 -0.30 dB -10.65 dB 4:12 06-The Gallery
DR10 -0.31 dB -14.34 dB 4:28 07-I Think I Understand
DR8 -0.46 dB -11.11 dB 3:10 08-Songs To Aging Children Come
DR9 -2.23 dB -16.73 dB 2:50 09-The Fiddle And The Drum
DR10 -0.38 dB -12.75 dB 4:35 10-Both Sides, Now
––––––––––––––––––––––––––––––––––––––––

Number of tracks: 10
Official DR value: DR9

Samplerate: 44100 Hz
Channels: 2
Bits per sample: 16
Bitrate: 765 kbps
Codec: FLAC

=================

Joni Mitchell - Studio Albums 1968-1979 (2012) [10CD Box Set] Re-up

CD3: Joni Mitchell - Ladies Of The Canyon (1970)
EAC Rip | Flac(Image) + Cue + Log & MP3 CBR 320Kbps
~ 277 or 112 Mb | Scans(png) -> 53 Mb
Folk-Rock / Folk-Jazz / Jazz / Pop

This wonderfully varied release shows a number of new tendencies in Joni Mitchell's work, some of which would come to fuller fruition on subsequent albums. "The Arrangement," "Rainy Night House," and "Woodstock" contain lengthy instrumental sections, presaging the extensive non-vocal stretches in later selections such as "Down to You" from Court and Spark. Jazz elements are noticeable in the wind solos of "For Free" and "Conversation," exhibiting an important influence that would extend as late as Mingus. The unusually poignant desolation of "The Arrangement" would surface more strongly in Blue. A number of the selections here ("Willy" and "Blue Boy") use piano rather than guitar accompaniment; arrangements here are often more colorful and complex than before, utilizing cello, clarinet, flute, saxophone, and percussion. Mitchell sings more clearly and expressively than on prior albums, most strikingly so on "Woodstock," her celebration of the pivotal 1960s New York rock festival. This number, given a haunting electric piano accompaniment, is sung in a gutsy, raw, soulful manner; the selection proves amply that pop music anthems don't all have to be loud production numbers. Songs here take many moods, ranging from the sunny, easygoing "Morning Morgantown" (a charming small-town portrait) to the nervously energetic "Conversation" (about a love triangle in the making) to the cryptically spooky "The Priest" (presenting the speaker's love for a Spartan man) to the sweetly sentimental classic "The Circle Game" (denoting the passage of time in touching terms) to the bouncy and vibrant single "Big Yellow Taxi" (with humorous lyrics on ecological matters) to the plummy, sumptuous title track (a celebration of creativity in all its manifestations). This album is yet another essential listen in Mitchell's recorded canon.

by David Cleary
Tracklist:

01. Morning Morgantown 03:13
02. For Free 04:31
03. Conversation 04:26
04. Ladies Of The Canyon 03:32
05. Willy 03:00
06. The Arrangement 03:34
07. Rainy Night House 03:24
08. The Priest 03:40
09. Blue Boy 02:54
10. Big Yellow Taxi 02:15
11. Woodstock 05:29
12. The Circle Game 04:55

Exact Audio Copy V1.0 beta 3 from 29. August 2011

EAC extraction logfile from 13. March 2013, 21:33

Joni Mitchell / Ladies Of The Canyon

Used drive : PLEXTOR BD-R PX-B950SA Adapter: 6 ID: 0

Read mode : Secure
Utilize accurate stream : Yes
Defeat audio cache : Yes
Make use of C2 pointers : No

Read offset correction : 6
Overread into Lead-In and Lead-Out : No
Fill up missing offset samples with silence : Yes
Delete leading and trailing silent blocks : No
Null samples used in CRC calculations : Yes
Used interface : Native Win32 interface for Win NT & 2000

Used output format : Internal WAV Routines
Sample format : 44.100 Hz; 16 Bit; Stereo


TOC of the extracted CD

Track | Start | Length | Start sector | End sector
––––––––––––––––––––––––––––-
1 | 0:00.00 | 3:13.50 | 0 | 14524
2 | 3:13.50 | 4:31.52 | 14525 | 34901
3 | 7:45.27 | 4:26.73 | 34902 | 54924
4 | 12:12.25 | 3:32.70 | 54925 | 70894
5 | 15:45.20 | 3:00.52 | 70895 | 84446
6 | 18:45.72 | 3:34.23 | 84447 | 100519
7 | 22:20.20 | 3:24.57 | 100520 | 115876
8 | 25:45.02 | 3:40.58 | 115877 | 132434
9 | 29:25.60 | 2:54.22 | 132435 | 145506
10 | 32:20.07 | 2:15.05 | 145507 | 155636
11 | 34:35.12 | 5:29.30 | 155637 | 180341
12 | 40:04.42 | 4:55.05 | 180342 | 202471


Range status and errors

Selected range

Filename C:\Users\Meijin\Desktop\Lossless Rip by ALLexxess\Joni Mitchell\2012 The Studio Albums 1968-1979 (10CD Box Set Rhino Records)\1970 Ladies Of The Canyon\Joni Mitchell - Ladies Of The Canyon.wav

Peak level 93.7 %
Extraction speed 6.9 X
Range quality 100.0 %
Test CRC BD7FCDF9
Copy CRC BD7FCDF9
Copy OK

No errors occurred


AccurateRip summary

Track 1 accurately ripped (confidence 2) [D6330333] (AR v1)
Track 2 accurately ripped (confidence 2) [1B5E1C7E] (AR v1)
Track 3 accurately ripped (confidence 2) [C2071D28] (AR v1)
Track 4 accurately ripped (confidence 2) [7FF23851] (AR v1)
Track 5 accurately ripped (confidence 2) [AD88878D] (AR v1)
Track 6 accurately ripped (confidence 2) [D330A2EC] (AR v1)
Track 7 accurately ripped (confidence 2) [2FFE162A] (AR v1)
Track 8 accurately ripped (confidence 2) [392CDF67] (AR v1)
Track 9 accurately ripped (confidence 2) [656B7ECE] (AR v1)
Track 10 accurately ripped (confidence 2) [EFDE3BD7] (AR v1)
Track 11 accurately ripped (confidence 2) [320412E1] (AR v1)
Track 12 accurately ripped (confidence 2) [C9E969EF] (AR v1)

All tracks accurately ripped

End of status report

foobar2000 1.1.18 / Dynamic Range Meter 1.1.1
log date: 2013-03-19 19:02:24

––––––––––––––––––––––––––––––––––––––––
Analyzed: Joni Mitchell / Ladies Of The Canyon
––––––––––––––––––––––––––––––––––––––––

DR Peak RMS Duration Track
––––––––––––––––––––––––––––––––––––––––
DR9 -0.88 dB -13.90 dB 3:14 01-Morning Morgantown
DR11 -0.72 dB -13.87 dB 4:32 02-For Free
DR10 -0.62 dB -13.63 dB 4:27 03-Conversation
DR9 -0.82 dB -11.87 dB 3:33 04-Ladies Of The Canyon
DR10 -0.68 dB -13.95 dB 3:01 05-Willy
DR10 -1.25 dB -15.85 dB 3:34 06-The Arrangement
DR10 -1.20 dB -13.15 dB 3:25 07-Rainy Night House
DR11 -0.56 dB -14.56 dB 3:41 08-The Priest
DR9 -1.43 dB -14.31 dB 2:54 09-Blue Boy
DR10 -0.63 dB -12.58 dB 2:15 10-Big Yellow Taxi
DR9 -1.65 dB -15.19 dB 5:29 11-Woodstock
DR10 -0.80 dB -13.72 dB 4:55 12-The Circle Game
––––––––––––––––––––––––––––––––––––––––

Number of tracks: 12
Official DR value: DR10

Samplerate: 44100 Hz
Channels: 2
Bits per sample: 16
Bitrate: 818 kbps
Codec: FLAC

=================

Joni Mitchell - Studio Albums 1968-1979 (2012) [10CD Box Set] Re-up

CD4: Joni Mitchell - Blue (1971)
EAC Rip | Flac(Image) + Cue + Log & MP3 CBR 320Kbps
~ 213 or 104 Mb | Scans(png) -> 105 Mb
Folk-Rock / Folk-Jazz / Jazz / Pop

Sad, spare, and beautiful, Blue is the quintessential confessional singer/songwriter album. Forthright and poetic, Joni Mitchell's songs are raw nerves, tales of love and loss (two words with relative meaning here) etched with stunning complexity; even tracks like "All I Want," "My Old Man," and "Carey" – the brightest, most hopeful moments on the record – are darkened by bittersweet moments of sorrow and loneliness. At the same time that songs like "Little Green" (about a child given up for adoption) and the title cut (a hymn to salvation supposedly penned for James Taylor) raise the stakes of confessional folk-pop to new levels of honesty and openness, Mitchell's music moves beyond the constraints of acoustic folk into more intricate and diverse territory, setting the stage for the experimentation of her later work. Unrivaled in its intensity and insight, Blue remains a watershed.

by Jason Ankeny
Tracklist:

01. All I Want 03:34
02. My Old Man 03:34
03. Little Green 03:27
04. Carey 03:03
05. Blue 03:05
06. California 03:50
07. This Flight Tonight 02:52
08. River 04:05
09. A Case Of You 04:23
10. The Last Time I Saw Richard 04:16

Exact Audio Copy V1.0 beta 3 from 29. August 2011

EAC extraction logfile from 13. March 2013, 21:01

Joni Mitchell / Blue

Used drive : PLEXTOR BD-R PX-B950SA Adapter: 6 ID: 0

Read mode : Secure
Utilize accurate stream : Yes
Defeat audio cache : Yes
Make use of C2 pointers : No

Read offset correction : 6
Overread into Lead-In and Lead-Out : No
Fill up missing offset samples with silence : Yes
Delete leading and trailing silent blocks : No
Null samples used in CRC calculations : Yes
Used interface : Native Win32 interface for Win NT & 2000

Used output format : Internal WAV Routines
Sample format : 44.100 Hz; 16 Bit; Stereo


TOC of the extracted CD

Track | Start | Length | Start sector | End sector
––––––––––––––––––––––––––––-
1 | 0:00.00 | 3:34.17 | 0 | 16066
2 | 3:34.17 | 3:34.63 | 16067 | 32179
3 | 7:09.05 | 3:27.37 | 32180 | 47741
4 | 10:36.42 | 3:03.38 | 47742 | 61504
5 | 13:40.05 | 3:05.35 | 61505 | 75414
6 | 16:45.40 | 3:50.32 | 75415 | 92696
7 | 20:35.72 | 2:52.45 | 92697 | 105641
8 | 23:28.42 | 4:05.00 | 105642 | 124016
9 | 27:33.42 | 4:23.08 | 124017 | 143749
10 | 31:56.50 | 4:16.57 | 143750 | 163006


Range status and errors

Selected range

Filename C:\Users\Meijin\Desktop\Lossless Rip by ALLexxess\Joni Mitchell\2012 The Studio Albums 1968-1979 (10CD Box Set Rhino Records)\1971 Blue\Joni Mitchell - Blue.wav

Peak level 97.6 %
Extraction speed 6.5 X
Range quality 100.0 %
Test CRC 3D025EB2
Copy CRC 3D025EB2
Copy OK

No errors occurred


AccurateRip summary

Track 1 accurately ripped (confidence 2) [906DCD59] (AR v1)
Track 2 accurately ripped (confidence 2) [5B5F05A4] (AR v1)
Track 3 accurately ripped (confidence 2) [FAD2E2C3] (AR v1)
Track 4 accurately ripped (confidence 2) [66E2ED95] (AR v1)
Track 5 accurately ripped (confidence 2) [A86C350E] (AR v1)
Track 6 accurately ripped (confidence 2) [8802B241] (AR v1)
Track 7 accurately ripped (confidence 2) [74E76238] (AR v1)
Track 8 accurately ripped (confidence 2) [DFB6E346] (AR v1)
Track 9 accurately ripped (confidence 2) [7C0A198A] (AR v1)
Track 10 accurately ripped (confidence 2) [C07E1DA2] (AR v1)

All tracks accurately ripped

End of status report

foobar2000 1.1.18 / Dynamic Range Meter 1.1.1
log date: 2013-03-19 19:02:45

––––––––––––––––––––––––––––––––––––––––
Analyzed: Joni Mitchell / Blue
––––––––––––––––––––––––––––––––––––––––

DR Peak RMS Duration Track
––––––––––––––––––––––––––––––––––––––––
DR11 -0.66 dB -15.28 dB 3:34 01-All I Want
DR9 -0.86 dB -12.76 dB 3:35 02-My Old Man
DR10 -0.89 dB -14.87 dB 3:27 03-Little Green
DR8 -0.25 dB -11.17 dB 3:04 04-Carey
DR10 -0.76 dB -14.69 dB 3:05 05-Blue
DR9 -0.21 dB -12.55 dB 3:50 06-California
DR8 -0.22 dB -12.17 dB 2:53 07-This Flight Tonight
DR11 -0.37 dB -14.99 dB 4:05 08-River
DR8 -0.40 dB -12.88 dB 4:23 09-A Case Of You
DR10 -0.43 dB -15.05 dB 4:17 10-The Last Time I Saw Richard
––––––––––––––––––––––––––––––––––––––––

Number of tracks: 10
Official DR value: DR9

Samplerate: 44100 Hz
Channels: 2
Bits per sample: 16
Bitrate: 738 kbps
Codec: FLAC

=================

Joni Mitchell - Studio Albums 1968-1979 (2012) [10CD Box Set] Re-up

CD5: Joni Mitchell - For The Roses (1972)
EAC Rip | Flac(Image) + Cue + Log & MP3 CBR 320Kbps
~ 261 or 114 Mb | Scans(png) -> 119 Mb
Folk-Rock / Folk-Jazz / Jazz / Pop

On For the Roses, Joni Mitchell began to explore jazz and other influences in earnest. As one might expect from a transitional album, there is a lot of stylistic ground explored, including straight folk selections using guitar ("For the Roses") and piano ("Banquet," "See You Sometime," "Lesson in Survival") overtly jazzy numbers ("Barangrill," "Cold Blue Steel and Sweet Fire," and hybrids that cross the two "Let the Wind Carry Me," "Electricity," "Woman of Heart and Mind," "Judgment of the Moon and Stars"). "Blonde in the Bleachers" grafts a rock & roll band coda onto a piano-based singer/songwriter main body. The hit single "You Turn Me on I'm a Radio" is an unusual essay into country-tinged pop, sporting a Dylanesque harmonica solo played by Graham Nash and lush backing vocals. Arrangements here build solidly upon the tentative expansion of scoring first seen in Ladies of the Canyon. "Judgment of the Moon and Stars" and "Let the Wind Carry Me" present lengthy instrumental interludes. The lyrics here are among Mitchell's best, continuing in the vein of gripping honesty and heartfelt depth exhibited on Blue. As always, there are selections about relationship problems, such as "Lesson in Survival," "See You Sometime," and perhaps the best of all her songs in this genre, "Woman of Heart and Mind." "Cold Blue Steel and Sweet Fire" presents a gritty inner-city survival scene, while "Barangrill" winsomely extols the uncomplicated virtues of a roadside truck stop. More than a bridge between great albums, this excellent disc is a top-notch listen in its own right.

by David Cleary
Tracklist:

01. Banquet 03:01
02. Cold Blue Steel And Sweet Fire 04:17
03. Barangrill 02:51
04. Lesson In Survival 03:11
05. Let The Wind Carry Me 03:56
06. For The Roses 03:48
07. See You Sometime 02:56
08. Electricity 03:01
09. You Turn Me On I'm A Radio 02:39
10. Blonde In The Bleachers 02:42
11. Woman Of Heart And Mind 02:38
12. Judgement Of The Moon And Stars (Ludwig's Tune) 05:19

Exact Audio Copy V1.0 beta 3 from 29. August 2011

EAC extraction logfile from 13. March 2013, 20:35

Joni Mitchell / For The Roses

Used drive : PLEXTOR BD-R PX-B950SA Adapter: 6 ID: 0

Read mode : Secure
Utilize accurate stream : Yes
Defeat audio cache : Yes
Make use of C2 pointers : No

Read offset correction : 6
Overread into Lead-In and Lead-Out : No
Fill up missing offset samples with silence : Yes
Delete leading and trailing silent blocks : No
Null samples used in CRC calculations : Yes
Used interface : Native Win32 interface for Win NT & 2000

Used output format : Internal WAV Routines
Sample format : 44.100 Hz; 16 Bit; Stereo


TOC of the extracted CD

Track | Start | Length | Start sector | End sector
––––––––––––––––––––––––––––-
1 | 0:00.00 | 3:01.73 | 0 | 13647
2 | 3:01.73 | 4:17.25 | 13648 | 32947
3 | 7:19.23 | 2:51.70 | 32948 | 45842
4 | 10:11.18 | 3:11.35 | 45843 | 60202
5 | 13:22.53 | 3:56.40 | 60203 | 77942
6 | 17:19.18 | 3:48.05 | 77943 | 95047
7 | 21:07.23 | 2:56.57 | 95048 | 108304
8 | 24:04.05 | 3:01.45 | 108305 | 121924
9 | 27:05.50 | 2:39.13 | 121925 | 133862
10 | 29:44.63 | 2:42.07 | 133863 | 146019
11 | 32:26.70 | 2:38.60 | 146020 | 157929
12 | 35:05.55 | 5:19.33 | 157930 | 181887


Range status and errors

Selected range

Filename C:\Users\Meijin\Desktop\Lossless Rip by ALLexxess\Joni Mitchell\2012 The Studio Albums 1968-1979 (10CD Box Set Rhino Records)\1972 For The Roses\Joni Mitchell - For The Roses.wav

Peak level 100.0 %
Extraction speed 6.7 X
Range quality 100.0 %
Test CRC 7E20D7A5
Copy CRC 7E20D7A5
Copy OK

No errors occurred


AccurateRip summary

Track 1 accurately ripped (confidence 5) [87B45E58] (AR v2)
Track 2 accurately ripped (confidence 5) [F3A06DF9] (AR v2)
Track 3 accurately ripped (confidence 5) [C36657BF] (AR v2)
Track 4 accurately ripped (confidence 5) [2BC6922E] (AR v2)
Track 5 accurately ripped (confidence 5) [0872F014] (AR v2)
Track 6 accurately ripped (confidence 5) [477E1EDF] (AR v2)
Track 7 accurately ripped (confidence 5) [5E4A7E0D] (AR v2)
Track 8 accurately ripped (confidence 5) [BC7B230E] (AR v2)
Track 9 accurately ripped (confidence 5) [2CCD8737] (AR v2)
Track 10 accurately ripped (confidence 5) [A49C410D] (AR v2)
Track 11 accurately ripped (confidence 5) [2618844B] (AR v2)
Track 12 accurately ripped (confidence 5) [029F84D6] (AR v2)

All tracks accurately ripped

End of status report

foobar2000 1.1.18 / Dynamic Range Meter 1.1.1
log date: 2013-03-19 19:03:06

––––––––––––––––––––––––––––––––––––––––
Analyzed: Joni Mitchell / For The Roses
––––––––––––––––––––––––––––––––––––––––

DR Peak RMS Duration Track
––––––––––––––––––––––––––––––––––––––––
DR10 -0.41 dB -13.43 dB 3:02 01-Banquet
DR12 0.00 dB -14.17 dB 4:17 02-Cold Blue Steel And Sweet Fire
DR12 -0.69 dB -15.22 dB 2:52 03-Barangrill
DR11 0.00 dB -14.95 dB 3:11 04-Lesson In Survival
DR11 -0.10 dB -14.92 dB 3:57 05-Let The Wind Carry Me
DR11 -0.10 dB -13.72 dB 3:48 06-For The Roses
DR11 -0.36 dB -13.98 dB 2:57 07-See You Sometime
DR11 -0.09 dB -14.30 dB 3:02 08-Electricity
DR10 -0.18 dB -14.06 dB 2:39 09-You Turn Me On I'm A Radio
DR11 -0.03 dB -14.87 dB 2:42 10-Blonde In The Bleachers
DR11 -0.20 dB -13.09 dB 2:39 11-Woman Of Heart And Mind
DR12 -0.20 dB -15.46 dB 5:19 12-Judgement Of The Moon And Stars (Ludwig's Tune)
––––––––––––––––––––––––––––––––––––––––

Number of tracks: 12
Official DR value: DR11

Samplerate: 44100 Hz
Channels: 2
Bits per sample: 16
Bitrate: 785 kbps
Codec: FLAC

=================

Joni Mitchell - Studio Albums 1968-1979 (2012) [10CD Box Set] Re-up

CD6: Joni Mitchell - Court And Spark (1974)
EAC Rip | Flac(Image) + Cue + Log & MP3 CBR 320Kbps
~ 227 or 228 or 106 Mb | Scans(png) -> 86 Mb
Folk-Rock / Folk-Jazz / Jazz / Pop

Joni Mitchell reached her commercial high point with Court and Spark, a remarkably deft fusion of folk, pop, and jazz which stands as her best-selling work to date. While as unified and insightful as Blue, the album – a concept record exploring the roles of honesty and trust in relationships, romantic and otherwise – moves away from confessional songwriting into evocative character studies: the hit "Free Man in Paris," written about David Geffen, is a not-so-subtle dig at the machinations of the music industry, while "Raised on Robbery" offers an acutely funny look at the predatory environment of the singles bar scene. Much of Court and Spark is devoted to wary love songs: both the title cut and "Help Me," the record's most successful single, carefully measure the risks of romance, while "People's Parties" and "The Same Situation" are fraught with worry and self-doubt (standing in direct opposition to the music, which is smart, smooth, and assured from the first note to the last).

by Jason Ankeny
Tracklist:

01. Court And Spark 02:46
02. Help Me 03:22
03. Free Man In Paris 03:03
04. People's Parties 02:15
05. The Same Situation 02:57
06. Car On A Hill 03:02
07. Down To You 05:38
08. Just Like This Train 04:24
09. Raised On Robbery 03:06
10. Trouble Child 04:00
11. Twisted 02:21

Exact Audio Copy V1.0 beta 3 from 29. August 2011

EAC extraction logfile from 13. March 2013, 20:07

Joni Mitchell / Court And Spark

Used drive : PLEXTOR BD-R PX-B950SA Adapter: 6 ID: 0

Read mode : Secure
Utilize accurate stream : Yes
Defeat audio cache : Yes
Make use of C2 pointers : No

Read offset correction : 6
Overread into Lead-In and Lead-Out : No
Fill up missing offset samples with silence : Yes
Delete leading and trailing silent blocks : No
Null samples used in CRC calculations : Yes
Used interface : Native Win32 interface for Win NT & 2000

Used output format : Internal WAV Routines
Sample format : 44.100 Hz; 16 Bit; Stereo


TOC of the extracted CD

Track | Start | Length | Start sector | End sector
––––––––––––––––––––––––––––-
1 | 0:00.00 | 2:46.28 | 0 | 12477
2 | 2:46.28 | 3:22.32 | 12478 | 27659
3 | 6:08.60 | 3:03.03 | 27660 | 41387
4 | 9:11.63 | 2:15.32 | 41388 | 51544
5 | 11:27.20 | 2:57.28 | 51545 | 64847
6 | 14:24.48 | 3:02.15 | 64848 | 78512
7 | 17:26.63 | 5:38.50 | 78513 | 103912
8 | 23:05.38 | 4:24.35 | 103913 | 123747
9 | 27:29.73 | 3:06.50 | 123748 | 137747
10 | 30:36.48 | 4:00.10 | 137748 | 155757
11 | 34:36.58 | 2:21.32 | 155758 | 166364


Range status and errors

Selected range

Filename C:\Users\Meijin\Desktop\Lossless Rip by ALLexxess\Joni Mitchell\2012 The Studio Albums 1968-1979 (10CD Box Set Rhino Records)\1974 Court And Spark\Joni Mitchell - Court And Spark.wav

Peak level 87.4 %
Extraction speed 6.5 X
Range quality 100.0 %
Test CRC 766086B3
Copy CRC 766086B3
Copy OK

No errors occurred


AccurateRip summary

Track 1 accurately ripped (confidence 2) [D02FB06D] (AR v1)
Track 2 accurately ripped (confidence 2) [E1EF5C23] (AR v1)
Track 3 accurately ripped (confidence 2) [AE52D853] (AR v1)
Track 4 accurately ripped (confidence 2) [AA9F653F] (AR v1)
Track 5 accurately ripped (confidence 2) [F200F4A5] (AR v1)
Track 6 accurately ripped (confidence 2) [325DD605] (AR v1)
Track 7 accurately ripped (confidence 2) [8824862D] (AR v1)
Track 8 accurately ripped (confidence 2) [F7638AE7] (AR v1)
Track 9 accurately ripped (confidence 2) [12766999] (AR v1)
Track 10 accurately ripped (confidence 2) [6A8878E0] (AR v1)
Track 11 accurately ripped (confidence 2) [87399BB8] (AR v1)

All tracks accurately ripped

End of status report

foobar2000 1.1.18 / Dynamic Range Meter 1.1.1
log date: 2013-03-19 19:03:28

––––––––––––––––––––––––––––––––––––––––
Analyzed: Joni Mitchell / Court And Spark
––––––––––––––––––––––––––––––––––––––––

DR Peak RMS Duration Track
––––––––––––––––––––––––––––––––––––––––
DR12 -1.93 dB -18.90 dB 2:46 01-Court And Spark
DR12 -2.06 dB -16.33 dB 3:22 02-Help Me
DR12 -1.16 dB -15.61 dB 3:03 03-Free Man In Paris
DR11 -4.62 dB -17.52 dB 2:15 04-People's Parties
DR12 -2.93 dB -17.34 dB 2:57 05-Same Situation
DR11 -1.69 dB -15.93 dB 3:02 06-Car On A Hill
DR12 -2.69 dB -18.61 dB 5:39 07-Down To You
DR12 -1.38 dB -16.06 dB 4:24 08-Just Like This Train
DR12 -1.22 dB -14.30 dB 3:07 09-Raised On Robbery
DR11 -1.97 dB -15.55 dB 4:00 10-Trouble Child
DR13 -3.33 dB -17.79 dB 2:21 11-Twisted
––––––––––––––––––––––––––––––––––––––––

Number of tracks: 11
Official DR value: DR12

Samplerate: 44100 Hz
Channels: 2
Bits per sample: 16
Bitrate: 788 kbps
Codec: FLAC

=================

Joni Mitchell - Studio Albums 1968-1979 (2012) [10CD Box Set] Re-up

CD7: Joni Mitchell - The Hissing Of Summer Lawns (1975)
EAC Rip | Flac(Image) + Cue + Log & MP3 CBR 320Kbps
~ 221 or 115 Mb | Scans(png) -> 105 Mb
Folk-Rock / Folk-Jazz / Jazz / Pop

Joni Mitchell evolved from the smooth jazz-pop of Court and Spark to the radical Hissing of Summer Lawns, an adventurous work that remains among her most difficult records. After opening with the graceful "In France They Kiss on Main Street," the album veers sharply into "The Jungle Line," an odd, Moog-driven piece backed by the rhythms of the warrior drums of Burundi – a move into multiculturalism that beat the likes of Paul Simon, Peter Gabriel, and Sting to the punch by a decade. While not as prescient, songs like "Edith and the Kingpin" and "Harry's House – Centerpiece" are no less complex or idiosyncratic, employing minor-key melodies and richly detailed lyrics to arrive at a strange and beautiful fusion of jazz and shimmering avant pop.

by Jason Ankeny
Tracklist:

01. In France They Kiss On Main Street 03:19
02. The Jungle Line 04:26
03. Edith And The Kingpin 03:37
04. Don't Interrupt The Sorrow 04:05
05. Shades Of Scarlett Conquering 04:59
06. The Hissing Of Summer Lawns 03:01
07. The Boho Dance 03:50
08. Harry's House / Centerpiece 06:48
09. Sweet Bird 04:12
10. Shadows And Light 04:17

Exact Audio Copy V1.0 beta 3 from 29. August 2011

EAC extraction logfile from 13. March 2013, 19:26

Joni Mitchell / The Hissing Of Summer Lawns

Used drive : PLEXTOR BD-R PX-B950SA Adapter: 6 ID: 0

Read mode : Secure
Utilize accurate stream : Yes
Defeat audio cache : Yes
Make use of C2 pointers : No

Read offset correction : 6
Overread into Lead-In and Lead-Out : No
Fill up missing offset samples with silence : Yes
Delete leading and trailing silent blocks : No
Null samples used in CRC calculations : Yes
Used interface : Native Win32 interface for Win NT & 2000

Used output format : Internal WAV Routines
Sample format : 44.100 Hz; 16 Bit; Stereo


TOC of the extracted CD

Track | Start | Length | Start sector | End sector
––––––––––––––––––––––––––––-
1 | 0:00.00 | 3:19.48 | 0 | 14972
2 | 3:19.48 | 4:26.05 | 14973 | 34927
3 | 7:45.53 | 3:37.37 | 34928 | 51239
4 | 11:23.15 | 4:05.23 | 51240 | 69637
5 | 15:28.38 | 4:59.22 | 69638 | 92084
6 | 20:27.60 | 3:01.15 | 92085 | 105674
7 | 23:29.00 | 3:50.38 | 105675 | 122962
8 | 27:19.38 | 6:48.15 | 122963 | 153577
9 | 34:07.53 | 4:12.37 | 153578 | 172514
10 | 38:20.15 | 4:17.03 | 172515 | 191792


Range status and errors

Selected range

Filename C:\Users\Meijin\Desktop\Lossless Rip by ALLexxess\Joni Mitchell\2012 The Studio Albums 1968-1979 (10CD Box Set Rhino Records)\1975 The Hissing Of Summer Lawns\Joni Mitchell - The Hissing Of Summer Lawns.wav

Peak level 89.2 %
Extraction speed 6.8 X
Range quality 100.0 %
Test CRC 68E0A308
Copy CRC 68E0A308
Copy OK

No errors occurred


AccurateRip summary

Track 1 accurately ripped (confidence 2) [774FC411] (AR v1)
Track 2 accurately ripped (confidence 2) [2DDCF1E9] (AR v1)
Track 3 accurately ripped (confidence 2) [C5258745] (AR v1)
Track 4 accurately ripped (confidence 2) [35D195AD] (AR v1)
Track 5 accurately ripped (confidence 2) [04A78ABD] (AR v1)
Track 6 accurately ripped (confidence 2) [30749409] (AR v1)
Track 7 accurately ripped (confidence 2) [DA363E88] (AR v1)
Track 8 accurately ripped (confidence 2) [0281F564] (AR v1)
Track 9 accurately ripped (confidence 2) [2C581C08] (AR v1)
Track 10 accurately ripped (confidence 2) [244DD7EF] (AR v1)

All tracks accurately ripped

End of status report

foobar2000 1.1.18 / Dynamic Range Meter 1.1.1
log date: 2013-03-19 19:03:55

––––––––––––––––––––––––––––––––––––––––
Analyzed: Joni Mitchell / The Hissing Of Summer Lawns
––––––––––––––––––––––––––––––––––––––––

DR Peak RMS Duration Track
––––––––––––––––––––––––––––––––––––––––
DR12 -2.76 dB -17.97 dB 3:20 01-In France They Kiss On Main Street
DR11 -4.58 dB -18.23 dB 4:26 02-The Jungle Line
DR11 -1.71 dB -17.20 dB 3:37 03-Edith And The Kingpin
DR12 -2.56 dB -17.86 dB 4:05 04-Don't Interrupt The Sorrow
DR13 -1.82 dB -20.70 dB 4:59 05-Shades Of Scarlett Conquering
DR12 -4.08 dB -19.32 dB 3:01 06-The Hissing Of Summer Lawns
DR13 -4.21 dB -20.50 dB 3:51 07-The Boho Dance
DR13 -0.98 dB -18.23 dB 6:48 08-Harry's House / Centerpiece
DR12 -5.24 dB -21.16 dB 4:12 09-Sweet Bird
DR11 -4.24 dB -21.19 dB 4:17 10-Shadows And Light
––––––––––––––––––––––––––––––––––––––––

Number of tracks: 10
Official DR value: DR12

Samplerate: 44100 Hz
Channels: 2
Bits per sample: 16
Bitrate: 655 kbps
Codec: FLAC

=================

Joni Mitchell - Studio Albums 1968-1979 (2012) [10CD Box Set] Re-up

CD8: Joni Mitchell - Hejira (1976)
EAC Rip | Flac(Image) + Cue + Log & MP3 CBR 320Kbps
~ 262 or 134 Mb | Scans(png) -> 84 Mb
Folk-Rock / Folk-Jazz / Jazz / Pop

Joni Mitchell's Hejira is the last in an astonishingly long run of top-notch studio albums dating back to her debut. Some vestiges of her old style remain here; "Song for Sharon" utilizes the static, pithy vocal harmonies from Ladies of the Canyon's "Woodstock," "Refuge of the Roads" features woodwind touches reminiscent of those in "Barangrill" from For the Roses, and "Coyote" is a fast guitar-strummed number that has precedents as far back as Clouds' "Chelsea Morning." But by and large, this release is the most overtly jazz-oriented of her career up to this point – hip and cool, but never smug or icy. "Blue Motel Room" in particular is a prototypic slow jazz-club combo number, appropriately smooth, smoky, and languorous. "Coyote," "Black Crow," and the title track are by contrast energetically restless fast-tempo selections. The rest of the songs here cleverly explore variants on mid- to slow-tempo approaches. None of these cuts are traditionally tuneful in the manner of Mitchell's older folk efforts; the effect here is one of subtle rolls and ridges on a green meadow rather than the outgoing beauty of a flower garden. Mitchell's verses, many concerned with character portraits, are among the most polished of her career; the most striking of these studies are that of the decrepit Delta crooner of "Furry Sings the Blues" and the ambivalent speaker of "Song to Sharon," who has difficulty choosing between commitment and freedom. Arrangements are sparse, yet surprisingly varied, the most striking of which is the kaleidoscopically pointillistic one used on "Amelia." Performances are excellent, with special kudos reserved for Jaco Pastorius' melodic bass playing on "Refuge of the Roads" and the title cut. This excellent album is a rewarding listen.

by David Cleary
Tracklist:

01. Coyote 05:01
02. Amelia 06:01
03. Furry Sings The Blues 05:07
04. A Strange Boy 04:18
05. Hejira 06:41
06. Song For Sharon 08:38
07. Black Crow 04:22
08. Blue Motel Room 05:04
09. Refuge Of The Roads 06:38

Exact Audio Copy V1.0 beta 3 from 29. August 2011

EAC extraction logfile from 12. March 2013, 21:18

Joni Mitchell / Hejira

Used drive : PLEXTOR BD-R PX-B950SA Adapter: 6 ID: 0

Read mode : Secure
Utilize accurate stream : Yes
Defeat audio cache : Yes
Make use of C2 pointers : No

Read offset correction : 6
Overread into Lead-In and Lead-Out : No
Fill up missing offset samples with silence : Yes
Delete leading and trailing silent blocks : No
Null samples used in CRC calculations : Yes
Used interface : Native Win32 interface for Win NT & 2000

Used output format : Internal WAV Routines
Sample format : 44.100 Hz; 16 Bit; Stereo


TOC of the extracted CD

Track | Start | Length | Start sector | End sector
––––––––––––––––––––––––––––-
1 | 0:00.00 | 5:01.30 | 0 | 22604
2 | 5:01.30 | 6:01.60 | 22605 | 49739
3 | 11:03.15 | 5:07.55 | 49740 | 72819
4 | 16:10.70 | 4:18.72 | 72820 | 92241
5 | 20:29.67 | 6:41.18 | 92242 | 122334
6 | 27:11.10 | 8:38.57 | 122335 | 161241
7 | 35:49.67 | 4:22.63 | 161242 | 180954
8 | 40:12.55 | 5:04.05 | 180955 | 203759
9 | 45:16.60 | 6:38.15 | 203760 | 233624


Range status and errors

Selected range

Filename C:\Users\Meijin\Desktop\Lossless Rip by ALLexxess\Joni Mitchell\2012 The Studio Albums 1968-1979 (10CD Box Set Rhino Records)\1976 Hejira\Joni Mitchell - Hejira.wav

Peak level 98.7 %
Extraction speed 3.2 X
Range quality 100.0 %
Test CRC A924938E
Copy CRC A924938E
Copy OK

No errors occurred


AccurateRip summary

Track 1 accurately ripped (confidence 2) [E0FA0DAD] (AR v2)
Track 2 accurately ripped (confidence 2) [9F8E5A9D] (AR v2)
Track 3 accurately ripped (confidence 2) [2120B4BE] (AR v2)
Track 4 accurately ripped (confidence 2) [D976DD3A] (AR v2)
Track 5 accurately ripped (confidence 2) [D1946BAD] (AR v2)
Track 6 accurately ripped (confidence 2) [F084EA31] (AR v2)
Track 7 accurately ripped (confidence 2) [1B3D8193] (AR v2)
Track 8 accurately ripped (confidence 2) [0EAD8466] (AR v2)
Track 9 accurately ripped (confidence 2) [EB17FBAF] (AR v2)

All tracks accurately ripped

End of status report

foobar2000 1.1.18 / Dynamic Range Meter 1.1.1
log date: 2013-03-19 19:04:19

––––––––––––––––––––––––––––––––––––––––
Analyzed: Joni Mitchell / Hejira
––––––––––––––––––––––––––––––––––––––––

DR Peak RMS Duration Track
––––––––––––––––––––––––––––––––––––––––
DR12 -1.67 dB -17.03 dB 5:01 01-Coyote
DR12 -4.32 dB -19.83 dB 6:02 02-Amelia
DR13 -4.13 dB -20.89 dB 5:08 03-Furry Sings The Blues
DR13 -4.18 dB -21.30 dB 4:19 04-A Strange Boy
DR13 -2.52 dB -18.52 dB 6:41 05-Hejira
DR13 -2.33 dB -18.26 dB 8:39 06-Song For Sharon
DR12 -0.11 dB -16.33 dB 4:23 07-Black Crow
DR14 -2.50 dB -19.35 dB 5:04 08-Blue Motel Room
DR13 -2.00 dB -18.92 dB 6:38 09-Refuge Of The Roads
––––––––––––––––––––––––––––––––––––––––

Number of tracks: 9
Official DR value: DR13

Samplerate: 44100 Hz
Channels: 2
Bits per sample: 16
Bitrate: 629 kbps
Codec: FLAC

=================

Joni Mitchell - Studio Albums 1968-1979 (2012) [10CD Box Set] Re-up

CD9: Joni Mitchell - Don Juan's Reckless Daughter (1977)
EAC Rip | Flac(Image) + Cue + Log & MP3 CBR 320Kbps
~ 350 or 157 Mb | Scans(png) -> 106 Mb
Folk-Rock / Folk-Jazz / Jazz / Pop

A big chunk of the pop audience Joni Mitchell had earned with Court and Spark in 1974 deserted her in 1975 and 1976 when the follow-ups, The Hissing of Summer Lawns and Hejira, proved more difficult works. With the pretentious double album Don Juan's Reckless Daughter, Mitchell lost many of the loyal fans who'd stuck with her from the beginning, but who, upon hearing her here as she spread her obscure poetic observations and thin melodies across whole sides of the album, found her disengaged from the close, personal observations that filled her best songs. This was Mitchell's last album to go gold.

by William Ruhlmann
Tracklist:

01. Overture - Cotton Avenue 06:41
02. Talk To Me 03:48
03. Jericho 03:25
04. Paprika Plains 16:21
05. Otis And Marlena 03:58
06. The Tenth World 06:55
07. Dreamland 04:39
08. Don Juan's Reckless Daughter 06:37
09. Off Night Backstreet 03:20
10. The Silky Veils Of Ardor 04:05

Exact Audio Copy V1.0 beta 3 from 29. August 2011

EAC extraction logfile from 12. March 2013, 20:31

Joni Mitchell / Don Juan's Reckless Daughter

Used drive : PLEXTOR BD-R PX-B950SA Adapter: 6 ID: 0

Read mode : Secure
Utilize accurate stream : Yes
Defeat audio cache : Yes
Make use of C2 pointers : No

Read offset correction : 6
Overread into Lead-In and Lead-Out : No
Fill up missing offset samples with silence : Yes
Delete leading and trailing silent blocks : No
Null samples used in CRC calculations : Yes
Used interface : Native Win32 interface for Win NT & 2000

Used output format : Internal WAV Routines
Sample format : 44.100 Hz; 16 Bit; Stereo


TOC of the extracted CD

Track | Start | Length | Start sector | End sector
––––––––––––––––––––––––––––-
1 | 0:00.00 | 6:41.38 | 0 | 30112
2 | 6:41.38 | 3:48.10 | 30113 | 47222
3 | 10:29.48 | 3:25.05 | 47223 | 62602
4 | 13:54.53 | 16:21.37 | 62603 | 136214
5 | 30:16.15 | 3:58.25 | 136215 | 154089
6 | 34:14.40 | 6:55.70 | 154090 | 185284
7 | 41:10.35 | 4:39.65 | 185285 | 206274
8 | 45:50.25 | 6:37.00 | 206275 | 236049
9 | 52:27.25 | 3:20.20 | 236050 | 251069
10 | 55:47.45 | 4:05.10 | 251070 | 269454


Range status and errors

Selected range

Filename C:\Users\Meijin\Desktop\Lossless Rip by ALLexxess\Joni Mitchell\2012 The Studio Albums 1968-1979 (10CD Box Set Rhino Records)\1977 Don Juan's Reckless Daughter\Joni Mitchell - Don Juan's Reckless Daughter.wav

Peak level 98.3 %
Extraction speed 7.9 X
Range quality 100.0 %
Test CRC C49AC9CD
Copy CRC C49AC9CD
Copy OK

No errors occurred


AccurateRip summary

Track 1 accurately ripped (confidence 2) [3E6FDCEA] (AR v1)
Track 2 accurately ripped (confidence 2) [C6441191] (AR v1)
Track 3 accurately ripped (confidence 2) [25984E37] (AR v1)
Track 4 accurately ripped (confidence 2) [37CC6C47] (AR v1)
Track 5 accurately ripped (confidence 2) [C4B82B23] (AR v1)
Track 6 accurately ripped (confidence 2) [1D81E333] (AR v1)
Track 7 accurately ripped (confidence 2) [A0D70F76] (AR v1)
Track 8 accurately ripped (confidence 2) [C3610DA1] (AR v1)
Track 9 accurately ripped (confidence 2) [9F61180F] (AR v1)
Track 10 accurately ripped (confidence 2) [85BD89BD] (AR v1)

All tracks accurately ripped

End of status report

foobar2000 1.1.18 / Dynamic Range Meter 1.1.1
log date: 2013-03-19 19:04:43

––––––––––––––––––––––––––––––––––––––––
Analyzed: Joni Mitchell / Don Juan's Reckless Daughter
––––––––––––––––––––––––––––––––––––––––

DR Peak RMS Duration Track
––––––––––––––––––––––––––––––––––––––––
DR11 -0.15 dB -15.45 dB 6:42 01-Overture - Cotton Avenue
DR10 -0.29 dB -12.14 dB 3:48 02-Talk To Me
DR9 -0.15 dB -12.19 dB 3:25 03-Jericho
DR11 -0.18 dB -16.86 dB 16:21 04-Paprika Plains
DR11 -0.29 dB -13.96 dB 3:58 05-Otis And Marlena
DR10 -0.14 dB -13.34 dB 6:56 06-The Tenth World
DR12 -0.14 dB -14.23 dB 4:40 07-Deamland
DR11 -0.25 dB -13.07 dB 6:37 08-Don Juan's Reckless Daughter
DR9 -0.30 dB -11.95 dB 3:20 09-Off Night Backstreet
DR12 -0.85 dB -16.87 dB 4:05 10-The Silky Veils Of Ardor
––––––––––––––––––––––––––––––––––––––––

Number of tracks: 10
Official DR value: DR11

Samplerate: 44100 Hz
Channels: 2
Bits per sample: 16
Bitrate: 757 kbps
Codec: FLAC

=================

Joni Mitchell - Studio Albums 1968-1979 (2012) [10CD Box Set] Re-up

CD10: Joni Mitchell - Mingus (1979)
EAC Rip | Flac(Image) + Cue + Log & MP3 CBR 320Kbps
~ 174 or 106 Mb | Scans(png) -> 105 Mb
Folk-Rock / Folk-Jazz / Jazz / Pop

In the months prior to the passing of legendary jazz bassist Charles Mingus, Joni Mitchell had been personally summoned by the bop pioneer to collaborate on a musical version of T.S. Eliot's Four Quartets. The project would entail Mitchell to condense the text for Mingus to score instrumentally. He planned on utilizing a full orchestra, as well as the more traditional guitar and bass. They would accompany Mitchell's vocals and the narration of selected portions of the text. After a few weeks of consideration, Mitchell's reaction was that "[she]'d rather condense the bible." Mingus then bestowed Mitchell with six melodies – "Joni I" through "Joni VI" – penned specifically for her. Mitchell spent a few weeks with Mingus – who was totally immobilized from amyotropic lateral sclerosis (aka Lou Gehrig's Disease) – during the spring of 1978. Their partnership advanced the half-dozen tunes. More importantly, it shook Mitchell from a three-month long writer's block/drought – yielding two of her best late-'70s compositions: "God Must Be a Boogie Man" and the revisitation and completion of a track she'd been wood-shedding, now titled "The Wolf That Lives in Lindsey." Incidentally, the former piece was inspired by the opening chapters of Mingus' autobiography, Beneath the Underdog. Initial recordings during Mitchell's stay with Mingus in New York City produced several interesting experimental sessions with the likes of Stanley Clarke (bass), Jan Hammer (keyboards), John McLaughlin (guitar), Gerry Mulligan (baritone sax), and Tony Williams (drums). A few of these recordings – while rumored to have been lost, destroyed, or made otherwise unavailable – were leaked into the trading community in the late '90s. Arguably, Mitchell could not have chosen any finer musicians than the sextet she ultimately incorporated into this work. The luminaries include Herbie Hancock (electric piano), Wayne Shorter (soprano sax), Jaco Pastorious (bass/horn arrangements), Peter Erskine (drums), Don Alias (congas), and Emil Richards (percussion). Sprinkled amongst these soulfully jazzy pieces are five "raps," or aural snapshots of the time Mitchell and Mingus spent together. Sadly, Charles Mingus passed before he was able to listen to this timeless and ageless paean to his remarkable contributions to bop and free jazz.

by Lindsay Planer
Tracklist:

01. Happy Birthday 1975 (Rap) 00:57
02. God Must Be A Boogie Man 04:35
03. Funeral (Rap) 01:07
04. A Chair In The Sky 06:42
05. The Wolf That Lives In Lindsey 06:33
06. I's A Muggin' (Rap) 00:07
07. Sweet Sucker Dance 08:04
08. Coin In The Pocket (Rap) 00:11
09. The Dry Cleaner From Des Moines 03:22
10. Lucky (Rap) 00:03
11. Goodbye Pork Pie Hat 05:36

Exact Audio Copy V1.0 beta 3 from 29. August 2011

EAC extraction logfile from 12. March 2013, 19:53

Joni Mitchell / Mingus

Used drive : PLEXTOR BD-R PX-B950SA Adapter: 6 ID: 0

Read mode : Secure
Utilize accurate stream : Yes
Defeat audio cache : Yes
Make use of C2 pointers : No

Read offset correction : 6
Overread into Lead-In and Lead-Out : No
Fill up missing offset samples with silence : Yes
Delete leading and trailing silent blocks : No
Null samples used in CRC calculations : Yes
Used interface : Native Win32 interface for Win NT & 2000

Used output format : Internal WAV Routines
Sample format : 44.100 Hz; 16 Bit; Stereo


TOC of the extracted CD

Track | Start | Length | Start sector | End sector
––––––––––––––––––––––––––––-
1 | 0:00.00 | 0:57.35 | 0 | 4309
2 | 0:57.35 | 4:35.62 | 4310 | 24996
3 | 5:33.22 | 1:07.30 | 24997 | 30051
4 | 6:40.52 | 6:42.45 | 30052 | 60246
5 | 13:23.22 | 6:33.28 | 60247 | 89749
6 | 19:56.50 | 0:07.40 | 89750 | 90314
7 | 20:04.15 | 8:04.42 | 90315 | 126656
8 | 28:08.57 | 0:11.70 | 126657 | 127551
9 | 28:20.52 | 3:22.18 | 127552 | 142719
10 | 31:42.70 | 0:03.62 | 142720 | 143006
11 | 31:46.57 | 5:36.45 | 143007 | 168251


Range status and errors

Selected range

Filename C:\Users\Meijin\Desktop\Lossless Rip by ALLexxess\Joni Mitchell\2012 The Studio Albums 1968-1979 (10CD Box Set Rhino Records)\1979 Mingus\Joni Mitchell - Mingus.wav

Peak level 84.4 %
Extraction speed 2.9 X
Range quality 99.9 %
Test CRC 5ED3E318
Copy CRC 5ED3E318
Copy OK

No errors occurred


AccurateRip summary

Track 1 accurately ripped (confidence 2) [4836DFEF] (AR v1)
Track 2 accurately ripped (confidence 2) [66593EDE] (AR v1)
Track 3 accurately ripped (confidence 2) [EE952564] (AR v1)
Track 4 accurately ripped (confidence 2) [07073584] (AR v1)
Track 5 accurately ripped (confidence 2) [D02EFDF9] (AR v1)
Track 6 accurately ripped (confidence 2) [9AE3A9C5] (AR v1)
Track 7 accurately ripped (confidence 2) [0140E621] (AR v1)
Track 8 accurately ripped (confidence 2) [3562FFE2] (AR v1)
Track 9 accurately ripped (confidence 2) [2517E051] (AR v1)
Track 10 not present in database
Track 11 accurately ripped (confidence 2) [D39F0369] (AR v1)

10 track(s) accurately ripped
1 track(s) not present in the AccurateRip database

Some tracks could not be verified as accurate

End of status report

foobar2000 1.1.18 / Dynamic Range Meter 1.1.1
log date: 2013-03-19 19:05:01

––––––––––––––––––––––––––––––––––––––––
Analyzed: Joni Mitchell / Mingus
––––––––––––––––––––––––––––––––––––––––

DR Peak RMS Duration Track
––––––––––––––––––––––––––––––––––––––––
DR12 -6.89 dB -21.46 dB 0:57 01-Happy Birthday 1975 (Rap)
DR20 -1.46 dB -25.93 dB 4:36 02-God Must Be A Boogie Man
DR12 -9.78 dB -23.86 dB 1:07 03-Funeral (Rap)
DR13 -3.35 dB -22.15 dB 6:43 04-A Chair In The Sky
DR14 -7.59 dB -28.02 dB 6:33 05-The Wolf That Lives In Lindsey
DR13 -18.87 dB -32.91 dB 0:08 06-I's A Muggin' (Rap)
DR15 -4.23 dB -23.26 dB 8:05 07-Sweet Sucker Dance
DR13 -12.39 dB -31.49 dB 0:12 08-Coin In The Pocket (Rap)
DR13 -1.62 dB -18.28 dB 3:22 09-The Dry Cleaner From Des Moines
DR8 -15.09 dB -33.75 dB 0:04 10-Lucky (Rap)
DR13 -4.52 dB -22.03 dB 5:37 11-Goodbye Pork Pie Hat
––––––––––––––––––––––––––––––––––––––––

Number of tracks: 11
Official DR value: DR13

Samplerate: 44100 Hz
Channels: 2
Bits per sample: 16
Bitrate: 580 kbps
Codec: FLAC

Joni Mitchell - Studio Albums 1968-1979 (2012) [10CD Box Set] Re-up

All thanks go to ALLexxess

Download Joni Mitchell - Studio Albums 1968-1979 (2012):