Tags
Language
Tags

Joni Mitchell - Taming The Tiger (1998)

Posted By: gribovar
Joni Mitchell - Taming The Tiger (1998)

Joni Mitchell - Taming The Tiger (1998)
EAC Rip | FLAC (image+.cue+log) - 243 MB | MP3 CBR 320 kbps (LAME 3.93) - 104 MB | Covers - 73 MB
Genre: Folk Rock, Singer-Songwriter, Pop Rock, Jazz | RAR 3% Rec. | Label: Reprise Records (9 46451-2)

This 1998 disc from Joni Mitchell harks back to the days when she heard the hissing of summer lawns and the jazzier essays of her Hejira days. The only difference between then and now is her use of a guitar synthesizer for her aural textures and melody templates. Always employing the best of musicians to help her out, Mitchell takes off on a trip through "Harlem in Havana" and ending up with "Tiger Bones" to show for it. Along the way, she puts forth "No Apologies" and rocks things up with "Lead Balloon" (which will remind one of "Big Yellow Taxi"), and contains one of her best opening one-liners ever. With "Taming the Tiger" dedicated to her newfound daughter and grandson, "Stay in Touch" could be about them, or almost anyone Mitchell's been close to. Either way, it's a great tune. Taming the Tiger is her most pleasing and consistent disc since the mid-'70s; even after all these years, Joni Mitchell continues to expand her music while keeping her integrity intact. This is definitely one of her best.
Tracklist:
01. Harlem in Havana
02. Man from Mars
03. Love Puts on a New Face
04. Lead Balloon
05. No Apologies
06. Taming the Tiger
07. The Crazy Cries of Love
08. Stay in Touch
09. Face Lift
10. My Best to You
11. Tiger Bones

Total time: 44:18

Exact Audio Copy V0.99 prebeta 3 from 28. July 2007

EAC extraction logfile from 9. July 2008, 12:31

Joni Mitchell / Taming the Tiger

Used drive : TSSTcorpCDDVDW SH-S203B Adapter: 0 ID: 0

Read mode : Secure
Utilize accurate stream : Yes
Defeat audio cache : Yes
Make use of C2 pointers : No

Read offset correction : 6
Overread into Lead-In and Lead-Out : No
Fill up missing offset samples with silence : Yes
Delete leading and trailing silent blocks : No
Null samples used in CRC calculations : Yes
Used interface : Installed external ASPI interface

Used output format : Internal WAV Routines
Sample format : 44.100 Hz; 16 Bit; Stereo


TOC of the extracted CD

Track | Start | Length | Start sector | End sector
––––––––––––––––––––––––––––-
1 | 0:00.32 | 4:27.00 | 32 | 20056
2 | 4:27.32 | 4:09.50 | 20057 | 38781
3 | 8:37.07 | 3:46.18 | 38782 | 55749
4 | 12:23.25 | 3:37.55 | 55750 | 72079
5 | 16:01.05 | 4:17.27 | 72080 | 91381
6 | 20:18.32 | 4:17.65 | 91382 | 110721
7 | 24:36.22 | 3:54.48 | 110722 | 128319
8 | 28:30.70 | 2:58.52 | 128320 | 141721
9 | 31:29.47 | 4:41.45 | 141722 | 162841
10 | 36:11.17 | 3:42.35 | 162842 | 179526
11 | 39:53.52 | 4:23.73 | 179527 | 199324


Range status and errors

Selected range

Filename K:\HQ\Joni Mitchell - Taming the Tiger.wav

Peak level 100.0 %
Range quality 100.0 %
Copy CRC 743C71D9
Copy OK

No errors occurred

End of status report

[CUETools log; Date: 24.11.2021 13:12:52; Version: 2.1.4]
Pregap length 00:00:32.
[CTDB TOCID: iEyXIbK3i8Txzq9YUcGDpDAKndY-] found.
Track | CTDB Status
1 | (168/169) Accurately ripped
2 | (168/169) Accurately ripped
3 | (168/169) Accurately ripped
4 | (168/169) Accurately ripped
5 | (168/169) Accurately ripped
6 | (168/169) Accurately ripped
7 | (168/169) Accurately ripped
8 | (168/169) Accurately ripped
9 | (168/169) Accurately ripped
10 | (168/169) Accurately ripped
11 | (168/169) Accurately ripped
[AccurateRip ID: 0012519d-009e165d-9b0a610b] found.
Track [ CRC | V2 ] Status
01 [019f9a28|33403e5f] (093+135/228) Accurately ripped
02 [6859fa2e|1cb4b757] (093+136/229) Accurately ripped
03 [8779287c|20c1c8c5] (093+136/229) Accurately ripped
04 [ea81bf8e|c67faaf7] (094+136/230) Accurately ripped
05 [67dd8673|92054369] (094+137/231) Accurately ripped
06 [82e40ccf|10903529] (095+137/232) Accurately ripped
07 [1841be3a|aab08137] (094+137/231) Accurately ripped
08 [dc035bc4|3f7ec1b3] (094+136/230) Accurately ripped
09 [360ffb48|501ecab5] (095+136/231) Accurately ripped
10 [2ecff69d|ec191c9a] (094+137/231) Accurately ripped
11 [e7c1f6ac|b7c4c267] (092+138/232) Accurately ripped
Offsetted by -566:
01 [376908cb] (000/228) No match (V2 was not tested)
02 [fc9e4bc6] (000/229) No match
03 [25caf922] (000/229) No match
04 [c4ec4ba3] (000/230) No match
05 [116eed73] (000/231) No match
06 [ea59927f] (000/232) No match
07 [a8ce7909] (000/231) No match
08 [a2d34c14] (000/230) No match
09 [88c074c4] (000/231) No match
10 [c66abeca] (000/231) No match
11 [91b41cca] (000/232) No match

Track Peak [ CRC32 ] [W/O NULL] [ LOG ]
– 100,0 [743C71D9] [7165FCAE] CRC32
01 100,0 [E9CE39B1] [AC36EB5C]
02 97,1 [28B8D456] [C517F6B3]
03 91,2 [8D2AF279] [EAD329C8]
04 94,0 [74F46994] [ACD4622E]
05 92,8 [09E10EFF] [B8C40F89]
06 90,6 [846891F6] [D6537DE0]
07 88,9 [5C8EAA6B] [9C5AF5A3]
08 96,6 [3AAF5060] [CF660FD7]
09 98,2 [1584E531] [C97AB931]
10 96,7 [40EEB84B] [DAB60F32]
11 88,4 [205BBFD9] [4FCE2E4C]

Thanks to the original releaser

See also:
V.A. - A Tribute to Joni Mitchell (2007)