Subcategories

Jouko Harjanne - Gruner, Jolivet, Bloch, Hartmann: Works for Trumpet (2002)

Posted By: tirexiss
Jouko Harjanne - Gruner, Jolivet, Bloch, Hartmann: Works for Trumpet (2002)

Jouko Harjanne - Gruner, Jolivet, Bloch, Hartmann: Works for Trumpet (2002)
EAC | FLAC (image+.cue, log) | Covers Included | 01:12:36 | 338 MB
Genre: Classical | Label: Apex | Catalog: 0927 43935 2

The Finnish Radio Symphony Orchestra, although a relatively small orchestra, is one of the most adventurous orchestras in Europe and one of the best orchestras in a country that has more symphonies per capita than any other country. Based in Helsinki, it is the primary radio orchestra of the Finnish Broadcasting Company.
It was founded in 1927 as a small studio ensemble at Finnish Radio, the state-owned broadcasting organization. It reached symphony orchestra size in 1947, and now numbers 70 players. Its repertory is made up primarily of pre-Romantic works, but also includes those of the Romantic, Post-Romantic, Modern, and Contemporary eras. It still premieres a number of new works commissioned by the broadcasting company each year. In its performances and recordings, the orchestra has become a significant advocate for contemporary Finnish composers.
Its conductors have included Toivo Haapanen, Paavo Berglund, Leif Segerstam, Okku Kamu, and Jukka-Pekka Saraste. Sakari Oramo became music director in the fall of 2003. Under Saraste tours became a regular practice for the orchestra, including travel to Asia, Vienna, London, and the Canary Islands.
In addition to all of the FRSO's concerts being broadcast, the orchestra has made over 80 recordings. In fact, the only surviving recording of Jean Sibelius conducting was the FRSO's first recording, made in 1939. Other Finnish composers the orchestra has recorded, mainly for the BIS and Ondine labels, include Leif Segerstam, Leevi Madetoja, Paavo Heininen, Joonas Kokkonen, Magnus Lindberg, Kaija Saariaho, Aarre Merikanto, Aulis Sallinen, Esa-Pekka Salonen, Väinö Raitio, Jouni Kaipainen, Uuno Klami, and Eero Hämeenniemi.

Jouko Harjanne - Gruner, Jolivet, Bloch, Hartmann: Works for Trumpet (2002)

Track List:

01. Karl Amadeus Hartmann - Lied for trumpet and wind ensemble (1933/80) - 8:18
02. Joachim Gruner - Trumpet concerto No. 1 (1986): 1. Arlecchino - Agitato - 5:32
03. Joachim Gruner - Trumpet concerto No. 1 (1986): 2. Ballet - Buffo - 5:15
04. Joachim Gruner - Trumpet concerto No. 1 (1986): 3. Carneval - Capriccioso - 5:30
05. André Jolivet - Concertino for trumpet, strings and piano (1948) - 9:47
06. Joachim Gruner - Trumpet concerto No. 2 (1990): Presto - 4:28
07. Joachim Gruner - Trumpet concerto No. 2 (1990): Quasi cadenza - 5:04
08. Joachim Gruner - Trumpet concerto No. 2 (1990): Scherzo - 4:03
09. Joachim Gruner - Trumpet concerto No. 2 (1990): Finale - 4:48
10. André Jolivet - Trumpet concerto No. 2 (1954): 1. Mesto - 4:39
11. André Jolivet - Trumpet concerto No. 2 (1954): 2. Grave - 3:38
12. André Jolivet - Trumpet concerto No. 2 (1954): 3. Giocoso - 4:01
13. Ernst Bloch - Proclamation for trumpet and orchestra (1955) - 6:02

Performers:
Tracks 1-4, 6-13: Jouko Harjanne (Trumpet), Finnish Radio Simphony Orchestra, Jukka-Pekka Saraste.
Track 5: Jouko Harjanne (Trumpet), Juhani Lagerspetz (piano), Tapiola Sinfonietta, Juhani Lamminmäki.

Exact Audio Copy V1.3 from 2. September 2016

Отчёт EAC об извлечении, выполненном 19. февраля 2018, 22:15

Jouko Harjanne (trumpet) & Finnish Radio Symphony Orchestra (conducted by Jukka-Pekka Saraste) / Works for Trumpet (Gruner / Jolivet / Bloch / Hartmann)

Дисковод: PIONEER DVD-RW DVR-215D Adapter: 1 ID: 3

Режим чтения : Достоверность
Использование точного потока : Да
Отключение кэша аудио : Да
Использование указателей C2 : Нет

Коррекция смещения при чтении : 48
Способность читать области Lead-in и Lead-out : Нет
Заполнение пропущенных сэмплов тишиной : Да
Удаление блоков с тишиной в начале и конце : Нет
При вычислениях CRC использовались нулевые сэмплы : Да
Интерфейс : Встроенный Win32-интерфейс для Win NT/2000

Выходной формат : Пользовательский кодировщик
Выбранный битрейт : 128 kBit/s
Качество : Высокий
Добавление ID3-тега : Нет
Утилита сжатия : C:\Program Files\Exact Audio Copy\Flac\flac.exe
Дополнительные параметры : -V -8 -T "Date=%year%" -T "Genre=%genre%" %source%


TOC извлечённого CD

Трек | Старт | Длительность | Начальный сектор | Конечный сектор
––––––––––––––––––––––––––––––––––-
1 | 0:00.00 | 8:29.23 | 0 | 38197
2 | 8:29.23 | 5:38.17 | 38198 | 63564
3 | 14:07.40 | 5:19.50 | 63565 | 87539
4 | 19:27.15 | 5:41.45 | 87540 | 113159
5 | 25:08.60 | 9:58.49 | 113160 | 158058
6 | 35:07.34 | 4:32.14 | 158059 | 178472
7 | 39:39.48 | 5:06.54 | 178473 | 201476
8 | 44:46.27 | 4:06.38 | 201477 | 219964
9 | 48:52.65 | 4:59.42 | 219965 | 242431
10 | 53:52.32 | 4:45.48 | 242432 | 263854
11 | 58:38.05 | 3:42.29 | 263855 | 280533
12 | 62:20.34 | 4:13.26 | 280534 | 299534
13 | 66:33.60 | 6:01.62 | 299535 | 326671


Характеристики диапазона извлечения и сообщения об ошибках

Выбранный диапазон

Имя файла C:\Works for Trumpet (Gruner, Jolivet, Bloch, Hartmann).wav

Пиковый уровень 98.8 %
Скорость извлечения 7.7 X
Качество диапазона 100.0 %
CRC теста 4169B075
CRC копии 4169B075
Копирование… OK

Ошибок не произошло


AccurateRip: сводка

Трек 1 точность не определена (достоверность 2) [2C65B0C6], AccurateRip вернул [97420DBF] (AR v2)
Трек 2 точность не определена (достоверность 2) [7B9D5748], AccurateRip вернул [D45FAC8A] (AR v2)
Трек 3 точность не определена (достоверность 2) [91FEB3CF], AccurateRip вернул [BBF8B1E4] (AR v2)
Трек 4 точность не определена (достоверность 2) [B2CBE381], AccurateRip вернул [1B068DB3] (AR v2)
Трек 5 точность не определена (достоверность 2) [8E855AFE], AccurateRip вернул [35E4B594] (AR v2)
Трек 6 точность не определена (достоверность 2) [087A8CF5], AccurateRip вернул [9233A6E0] (AR v2)
Трек 7 точность не определена (достоверность 2) [D1E53DAA], AccurateRip вернул [C166D23F] (AR v2)
Трек 8 точность не определена (достоверность 2) [D2F5DDFC], AccurateRip вернул [7FCBABCD] (AR v2)
Трек 9 точность не определена (достоверность 2) [DD3EA37C], AccurateRip вернул [AB5A8AAC] (AR v2)
Трек 10 точность не определена (достоверность 2) [A82BD640], AccurateRip вернул [CD2036F4] (AR v2)
Трек 11 точность не определена (достоверность 2) [0941DA37], AccurateRip вернул [EF68DCA7] (AR v2)
Трек 12 точность не определена (достоверность 2) [701EC6BD], AccurateRip вернул [ADE8D1A9] (AR v2)
Трек 13 точность не определена (достоверность 2) [92FFF42F], AccurateRip вернул [9DB9DCCB] (AR v2)

Ни один трек не прошёл проверки на точность
В вашей базе может быть иной вариант штамповки диска

Конец отчёта

–– CUETools DB Plugin V2.1.6

[CTDB TOCID: qkjJh77lN1xZBDnT6iRomDJbYko-] found
Submit result: qkjJh77lN1xZBDnT6iRomDJbYko- has been confirmed
Track | CTDB Status
1 | (3/3) Accurately ripped
2 | (3/3) Accurately ripped
3 | (3/3) Accurately ripped
4 | (3/3) Accurately ripped
5 | (3/3) Accurately ripped
6 | (3/3) Accurately ripped
7 | (3/3) Accurately ripped
8 | (3/3) Accurately ripped
9 | (3/3) Accurately ripped
10 | (3/3) Accurately ripped
11 | (3/3) Accurately ripped
12 | (3/3) Accurately ripped
13 | (3/3) Accurately ripped


==== Контрольная сумма отчёта B3844AAAC7F079C08AE3A4AF58B7547F88ABFD3A7B6B03B7B9A53179A9657B91 ====

[CUETools log; Date: 23.02.2018 10:08:00; Version: 2.1.5]
[CTDB TOCID: qkjJh77lN1xZBDnT6iRomDJbYko-] found.
Track | CTDB Status
1 | (4/4) Accurately ripped
2 | (4/4) Accurately ripped
3 | (4/4) Accurately ripped
4 | (4/4) Accurately ripped
5 | (4/4) Accurately ripped
6 | (4/4) Accurately ripped
7 | (4/4) Accurately ripped
8 | (4/4) Accurately ripped
9 | (4/4) Accurately ripped
10 | (4/4) Accurately ripped
11 | (4/4) Accurately ripped
12 | (4/4) Accurately ripped
13 | (4/4) Accurately ripped
[AccurateRip ID: 0025bdf9-01703c6a-ba11030d] found.
Track [ CRC | V2 ] Status
01 [1368f947|2c65b0c6] (0+0/2) No match
02 [42ce15ba|7b9d5748] (0+0/2) No match
03 [1eb0312b|91feb3cf] (0+0/2) No match
04 [842fddd4|b2cbe381] (0+0/2) No match
05 [0623b7c0|8e855afe] (0+0/2) No match
06 [6570270e|087a8cf5] (0+0/2) No match
07 [ceafc766|d1e53daa] (0+0/2) No match
08 [e663c54d|d2f5ddfc] (0+0/2) No match
09 [67c83377|dd3ea37c] (0+0/2) No match
10 [d8041674|a82bd640] (0+0/2) No match
11 [1e336132|0941da37] (0+0/2) No match
12 [0e94a46a|701ec6bd] (0+0/2) No match
13 [ffc73d77|92fff42f] (0+0/2) No match
Offsetted by 36:
01 [97420dbf] (2/2) Accurately ripped
02 [d45fac8a] (2/2) Accurately ripped
03 [bbf8b1e4] (2/2) Accurately ripped
04 [1b068db3] (2/2) Accurately ripped
05 [35e4b594] (2/2) Accurately ripped
06 [9233a6e0] (2/2) Accurately ripped
07 [c166d23f] (2/2) Accurately ripped
08 [7fcbabcd] (2/2) Accurately ripped
09 [ab5a8aac] (2/2) Accurately ripped
10 [cd2036f4] (2/2) Accurately ripped
11 [ef68dca7] (2/2) Accurately ripped
12 [ade8d1a9] (2/2) Accurately ripped
13 [9db9dccb] (2/2) Accurately ripped

Track Peak [ CRC32 ] [W/O NULL] [ LOG ]
– 98,8 [4169B075] [CF6FF4DF] CRC32
01 86,8 [5F459B02] [D81252AF]
02 98,8 [F5D955CB] [D02CDCCB]
03 78,0 [1828F510] [CD86A91B]
04 98,8 [4AB0D3A9] [87E857DD]
05 44,7 [1773CF56] [61876393]
06 73,0 [EBBA7F0D] [D9C61CED]
07 53,8 [E6F4A98E] [3CAD5E07]
08 80,1 [461C0A75] [7F8538AD]
09 79,4 [F0E9A7C5] [BF227FD2]
10 73,9 [658B2A05] [9865AA2B]
11 19,5 [86C3DC39] [E73CF0BA]
12 78,5 [41281AD5] [A038BA11]
13 78,5 [F00E0813] [FBC48DF6]

Thanks to the Original ripper rocker593!

Download: