Tags
Language
Tags

Judas Priest - Screaming For Vengeance (1982) {1991, Japanese Reissue}

Posted By: popsakov
Judas Priest - Screaming For Vengeance (1982) {1991, Japanese Reissue}

Judas Priest - Screaming For Vengeance (1982) {1991, Japanese Reissue}
EAC Rip | FLAC (Img) + Cue + Log ~ 307 Mb | MP3 CBR320 ~ 118 Mb
Full Scans | 00:38:49 | RAR 5% Recovery
Hard Rock, Heavy Metal | Epic / Sony Records #ESCA 5256

Judas Priest rebounded from the shaky Point of Entry with Screaming for Vengeance, arguably the strongest album of their early-'80s commercial period. Having moved a bit too far into simplistic hard rock, Vengeance found the band refocusing on heavy metal, and achieving a greater balance between commercialism and creativity. The results were catchy and accessible, yet harder-hitting, and without the awkwardly apparent calculation that informed the weakest moments of the album's two predecessors. Ultimately, Screaming for Vengeance hangs together better than even the undeniable landmark British Steel, both thematically and musically. There's less of a party-down feel here – the remaining traces of boogie have been ironed out, and the lyrics return to the darkness and menace that gave the band its mystique. Sure, if you stop to read the lyrics, all the references to demons and devils and monsters can look a little gratuitous, but the music here is so strong that there simply aren't any seams showing. Even the occasional filler is more metallic this time around – in place of trite teenage rebellion, listeners get the S&M-themed "Pain and Pleasure." In fact, "Pain and Pleasure" and "Fever" are the only two songs here that have never shown up on a band retrospective, which ought to tell you that Priest's songwriting here is perhaps the best it's ever been. The midtempo grooves that enlivened British Steel are here in full force on the band's signature tune, "You've Got Another Thing Comin'" (their only American chart single), as well as "Bloodstone," "Devil's Child," and unfairly forgotten single "(Take These) Chains," all uniformly great. But there's a nearly equal emphasis on uptempo headbanging, thanks to the classic "The Hellion/Electric Eye," the terrific album track "Riding on the Wind," and the stupendously high-velocity title cut, which is the closest they ever came to thrash metal (at least in the '80s). Despite a one-album misstep in between, Screaming for Vengeance managed to capitalize on the commercial breakthrough of British Steel, becoming the first Priest album to be certified double platinum, and reaching the Top 20 in America and the U.K. alike. Along with British Steel, it ranks as one of the best and most important mainstream metal albums of the '80s.

~ Steve Huey, All Music

***************

Judas Priest - Screaming For Vengeance (1982) {1991, Japanese Reissue}

Judas Priest - Screaming For Vengeance (1982) {1991, Japanese Reissue}

Track List:

01. The Hellion [0:42]
02. Electric Eye [3:39]
03. Riding On The Wind [3:10]
04. Bloodstone [3:53]
05. (Take These) Chains [3:07]
06. Pain and Pleasure [4:16]
07. Screaming For Vengeance [4:43]
08. You've Got Another Thing Comin' [5:10]
09. Fever [5:21]
10. Devil's Child [4:49]

Personnel:
Rob Halford – vocals
K. K. Downing – guitars
Glenn Tipton – guitars
Ian Hill – bass
Dave Holland – drums

Exact Audio Copy V1.3 from 2. September 2016

EAC extraction logfile from 23. March 2018, 19:07

Judas Priest / Screaming For Vengeance

Used drive : TSSTcorpCDDVDW TS-L633B Adapter: 1 ID: 0

Read mode : Secure
Utilize accurate stream : Yes
Defeat audio cache : Yes
Make use of C2 pointers : No

Read offset correction : 6
Overread into Lead-In and Lead-Out : No
Fill up missing offset samples with silence : Yes
Delete leading and trailing silent blocks : No
Null samples used in CRC calculations : Yes
Used interface : Native Win32 interface for Win NT & 2000

Used output format : Internal WAV Routines
Sample format : 44.100 Hz; 16 Bit; Stereo


TOC of the extracted CD

Track | Start | Length | Start sector | End sector
––––––––––––––––––––––––––––-
1 | 0:00.00 | 0:42.02 | 0 | 3151
2 | 0:42.02 | 3:38.43 | 3152 | 19544
3 | 4:20.45 | 3:09.70 | 19545 | 33789
4 | 7:30.40 | 3:52.40 | 33790 | 51229
5 | 11:23.05 | 3:07.20 | 51230 | 65274
6 | 14:30.25 | 4:16.35 | 65275 | 84509
7 | 18:46.60 | 4:42.47 | 84510 | 105706
8 | 23:29.32 | 5:09.48 | 105707 | 128929
9 | 28:39.05 | 5:21.22 | 128930 | 153026
10 | 34:00.27 | 4:48.63 | 153027 | 174689


Range status and errors

Selected range

Filename F:\Alexharvey\Judas Priest - Screaming For Vengeance.wav

Peak level 100.0 %
Extraction speed 2.5 X
Range quality 100.0 %
Test CRC 1309932F
Copy CRC 1309932F
Copy OK

No errors occurred


AccurateRip summary

Track 1 accurately ripped (confidence 15) [CDB44E19] (AR v2)
Track 2 accurately ripped (confidence 15) [84A7F31D] (AR v2)
Track 3 accurately ripped (confidence 14) [83BBBBC3] (AR v2)
Track 4 accurately ripped (confidence 14) [63FDE813] (AR v2)
Track 5 accurately ripped (confidence 14) [D1643B0C] (AR v2)
Track 6 accurately ripped (confidence 14) [F4CCB0F3] (AR v2)
Track 7 accurately ripped (confidence 14) [99A62351] (AR v2)
Track 8 accurately ripped (confidence 15) [A27E7950] (AR v2)
Track 9 accurately ripped (confidence 14) [220BDB9B] (AR v2)
Track 10 accurately ripped (confidence 14) [1AD4B43C] (AR v2)

All tracks accurately ripped

End of status report

–– CUETools DB Plugin V2.1.6

[CTDB TOCID: bWqIE9h2GluKmK2DvypmDmWeBr8-] found
Submit result: bWqIE9h2GluKmK2DvypmDmWeBr8- has been confirmed
Track | CTDB Status
1 | (48/48) Accurately ripped
2 | (48/48) Accurately ripped
3 | (48/48) Accurately ripped
4 | (48/48) Accurately ripped
5 | (48/48) Accurately ripped
6 | (48/48) Accurately ripped
7 | (48/48) Accurately ripped
8 | (48/48) Accurately ripped
9 | (48/48) Accurately ripped
10 | (46/48) Accurately ripped


==== Log checksum 3035DE4CCCD3D0596F9641AD0A79F2E786033D899FBCD6138DFBD8714A0A4F41 ====

foobar2000 1.3.16 / Dynamic Range Meter 1.1.1
log date: 2018-03-24 01:34:17

––––––––––––––––––––––––––––––––––––––––
Analyzed: Judas Priest / Screaming For Vengeance
––––––––––––––––––––––––––––––––––––––––

DR Peak RMS Duration Track
––––––––––––––––––––––––––––––––––––––––
DR11 -0.98 dB -15.07 dB 0:42 01-The Hellion
DR12 -0.45 dB -14.38 dB 3:39 02-Electric Eye
DR12 -0.44 dB -14.21 dB 3:10 03-Riding On The Wind
DR13 -0.42 dB -15.45 dB 3:53 04-Bloodstone
DR12 -0.73 dB -16.12 dB 3:07 05-(Take These) Chains
DR12 -1.30 dB -16.14 dB 4:16 06-Pain and Pleasure
DR12 -0.01 dB -14.34 dB 4:43 07-Screaming For Vengeance
DR13 0.00 dB -14.78 dB 5:10 08-You've Got Another Thing Comin'
DR13 -0.07 dB -16.51 dB 5:21 09-Fever
DR13 -0.24 dB -15.26 dB 4:49 10-Devil's Child
––––––––––––––––––––––––––––––––––––––––

Number of tracks: 10
Official DR value: DR12

Samplerate: 44100 Hz
Channels: 2
Bits per sample: 16
Bitrate: 967 kbps
Codec: FLAC
================================================================================

[CUETools log; Date: 24.03.2018 1:33:50; Version: 2.1.6]
[CTDB TOCID: bWqIE9h2GluKmK2DvypmDmWeBr8-] found.
Track | CTDB Status
1 | (49/49) Accurately ripped
2 | (49/49) Accurately ripped
3 | (49/49) Accurately ripped
4 | (49/49) Accurately ripped
5 | (49/49) Accurately ripped
6 | (49/49) Accurately ripped
7 | (49/49) Accurately ripped
8 | (49/49) Accurately ripped
9 | (49/49) Accurately ripped
10 | (47/49) Accurately ripped
[AccurateRip ID: 000c8290-00693ecc-6909190a] found.
Track [ CRC | V2 ] Status
01 [9960310f|cdb44e19] (04+15/29) Accurately ripped
02 [f7dfe588|84a7f31d] (04+15/29) Accurately ripped
03 [fc5e7ac5|83bbbbc3] (04+14/28) Accurately ripped
04 [de17f051|63fde813] (04+14/28) Accurately ripped
05 [74cdc440|d1643b0c] (04+14/28) Accurately ripped
06 [41e12fc0|f4ccb0f3] (04+14/28) Accurately ripped
07 [2155d2d1|99a62351] (04+14/28) Accurately ripped
08 [181eb485|a27e7950] (04+15/29) Accurately ripped
09 [6ddd2e49|220bdb9b] (04+14/28) Accurately ripped
10 [cddcbdd8|1ad4b43c] (04+14/28) Accurately ripped
Offsetted by 263:
01 [ae6e1b3b] (05/29) Accurately ripped
02 [379450f6] (05/29) Accurately ripped
03 [f936dc1a] (05/28) Accurately ripped
04 [cc58ca57] (05/28) Accurately ripped
05 [bc4e9fe9] (05/28) Accurately ripped
06 [c588e61a] (05/28) Accurately ripped
07 [29c333b4] (05/28) Accurately ripped
08 [b70a3552] (05/29) Accurately ripped
09 [3ae377dc] (05/28) Accurately ripped
10 [b46a1a57] (05/28) Accurately ripped

Track Peak [ CRC32 ] [W/O NULL] [ LOG ]
– 100,0 [1309932F] [47D0938C] CRC32
01 89,3 [FB22A3F4] [3676212B]
02 94,9 [216B6BB0] [267389B4]
03 95,0 [71F7F075] [7D09CCD7]
04 95,2 [3A7B50B1] [33B86481]
05 91,9 [611E8DBC] [0450D3A0]
06 86,0 [E117C597] [C7ABAA8E]
07 99,9 [AC013AD0] [41A19CBA]
08 100,0 [93247586] [240263D3]
09 99,1 [6A4FB777] [0CD17025]
10 97,2 [558E5109] [8F47C39D]

Judas Priest - Screaming For Vengeance (1982) {1991, Japanese Reissue}


All thanks go to Alexharvey

>>> Judas Priest in my Blog <<<

DOWNLOAD: