Subcategories

Judas Priest - Priest... Live! (1987) (Japan, 42·8P-215)

Posted By: Necromandus
Judas Priest - Priest... Live! (1987) (Japan, 42·8P-215)

Judas Priest - Priest… Live! (1987)
EAC Rip | FLAC, IMG+CUE+LOG | 570 MB | MP3 CBR 320 Kbps | 190 MB | Complete HQ Scans | PNG -> 200 MB
Heavy Metal/Hard Rock | Label: CBS Records #42·8P-215 | RAR 3% Rec. | Uploaded.net
… Japanese 1st Press CD (O·7·1, ¥4200, Matrix 42 8P-215 11 +++++) …

Many so-called 'professional' reviewers have bashed this album for being of very inferior quality and showcasing Judas Priest rapidly declining as a band. Well, I say fuck them, because Priest really comes alive on this album! The album contains a decent mix of old and new songs, good and bad ones. The tracks range between ones that suck, and have always sucked, like 'Out in the Cold' and 'Turbo Lover', songs that sound pretty much like the originals, albeit with a crowd of fans going nuts, like 'Some Heads Are Gonna Roll' and 'Heading Out to the Highway', and songs that actually work out really good as live tracks, 'Metal Gods' and, especially, 'Living After Midnight' really stand out here.

One of the coolest things about livealbuma is, obviously, the whole 'live feeling', and that works out really well on this album. Hearing the crowd go crazy shouting 'Priest! Priest! Priest! Priest!' and their satisfied cheering when Halford reveals one classic after another is something really awesome. Some tracks, most obviously 'Breaking the Law', suffer from the mistake that many bands do live: it's played at a way way way too fast speed, which suits it really badly, and destroys the otherwise so beloved riff… On the other hand, when 'Living After Midnight' kicks off, I tend to get goosebumps because of the collective shouts from the crowd - a really really awesome feeling. Also, the solo in the song has been changed and is a great improvement over the original. There are almost no of Judas Priest's early songs present on the album - actually there are none from the pre-British Steel era, so this works nice as a continuation where Unleashed in the East left off.

Some of Halford's speeches honestly tend to get annoying at times, when he for the sixth time starts shouting 'Let me hear you say OH YEAH!' and you start thinking 'get on with it already!'.
However, these things are insignificant and overall this IS a very good live record, and can be recommended to any Priest fan that like this stuff from British Steel and up.

Tracklist :

1. Out In The Cold - 6:33
2. Heading Out To The Highway - 4:30
3. Metal Gods - 4:37
4. Breaking The Law - 2:22
5. Love Bites - 5:20
6. Some Heads Are Gonna Roll - 4:04
7. The Sentinel - 5:11
8. Private Property - 4:12
9. Rock You All Around The World - 3:46
10. Electric Eye - 4:29
11. Turbo Lover - 5:44
12. Freewheel Burning - 4:57
13. Parental Guidance - 4:13
14. Living After Midnight - 4:42
15. Shout - Oh Yeah! - 1:30
16. You've Got Another Thing Comin' - 7:53

Exact Audio Copy V1.0 beta 3 from 29. August 2011

EAC extraction logfile from 29. September 2014, 16:06

Judas Priest / Priest… Live! (Japan, 42.8P-215)

Used drive : PIONEER DVD-RW DVR-219L Adapter: 1 ID: 0

Read mode : Secure
Utilize accurate stream : Yes
Defeat audio cache : Yes
Make use of C2 pointers : No

Read offset correction : 6
Overread into Lead-In and Lead-Out : No
Fill up missing offset samples with silence : Yes
Delete leading and trailing silent blocks : No
Null samples used in CRC calculations : Yes
Used interface : Native Win32 interface for Win NT & 2000

Used output format : Internal WAV Routines
Sample format : 44.100 Hz; 16 Bit; Stereo


TOC of the extracted CD

Track | Start | Length | Start sector | End sector
––––––––––––––––––––––––––––-
1 | 0:00.00 | 6:32.62 | 0 | 29461
2 | 6:32.62 | 4:30.00 | 29462 | 49711
3 | 11:02.62 | 4:36.58 | 49712 | 70469
4 | 15:39.45 | 2:21.55 | 70470 | 81099
5 | 18:01.25 | 5:20.00 | 81100 | 105099
6 | 23:21.25 | 4:04.37 | 105100 | 123436
7 | 27:25.62 | 5:10.60 | 123437 | 146746
8 | 32:36.47 | 4:11.45 | 146747 | 165616
9 | 36:48.17 | 3:45.50 | 165617 | 182541
10 | 40:33.67 | 4:29.13 | 182542 | 202729
11 | 45:03.05 | 5:43.57 | 202730 | 228511
12 | 50:46.62 | 4:56.38 | 228512 | 250749
13 | 55:43.25 | 4:13.00 | 250750 | 269724
14 | 59:56.25 | 4:42.12 | 269725 | 290886
15 | 64:38.37 | 1:29.40 | 290887 | 297601
16 | 66:08.02 | 7:53.13 | 297602 | 333089


Range status and errors

Selected range

Filename D:\CDRip for deminbek\Judas Priest - Priest… Live! (Japan, 42.8P-215).wav

Peak level 100.0 %
Extraction speed 8.0 X
Range quality 99.9 %
Test CRC 00E74259
Copy CRC 00E74259
Copy OK

No errors occurred


AccurateRip summary

Track 1 accurately ripped (confidence 11) [7C4F406B] (AR v2)
Track 2 accurately ripped (confidence 11) [04667BAF] (AR v2)
Track 3 accurately ripped (confidence 11) [6AD95EC0] (AR v2)
Track 4 accurately ripped (confidence 11) [71DC4C5E] (AR v2)
Track 5 accurately ripped (confidence 11) [21C22F48] (AR v2)
Track 6 accurately ripped (confidence 11) [15327B5F] (AR v2)
Track 7 accurately ripped (confidence 11) [96B8F596] (AR v2)
Track 8 accurately ripped (confidence 11) [CD4A03E0] (AR v2)
Track 9 accurately ripped (confidence 11) [B3D8A6DA] (AR v2)
Track 10 accurately ripped (confidence 11) [E258E646] (AR v2)
Track 11 accurately ripped (confidence 11) [4E1301AB] (AR v2)
Track 12 accurately ripped (confidence 11) [176EADCB] (AR v2)
Track 13 accurately ripped (confidence 11) [A61DCCA9] (AR v2)
Track 14 accurately ripped (confidence 10) [ABA91A6F] (AR v2)
Track 15 accurately ripped (confidence 11) [1EE67C68] (AR v2)
Track 16 accurately ripped (confidence 11) [6C389BBE] (AR v2)

All tracks accurately ripped

End of status report

–– CUETools DB Plugin V2.1.4

[CTDB TOCID: tLS3s_KxxCOBar6tUhryfF74zLE-] found
Submit result: tLS3s_KxxCOBar6tUhryfF74zLE- has been confirmed
Track | CTDB Status
1 | (14/14) Accurately ripped
2 | (14/14) Accurately ripped
3 | (14/14) Accurately ripped
4 | (14/14) Accurately ripped
5 | (14/14) Accurately ripped
6 | (14/14) Accurately ripped
7 | (14/14) Accurately ripped
8 | (14/14) Accurately ripped
9 | (14/14) Accurately ripped
10 | (14/14) Accurately ripped
11 | (14/14) Accurately ripped
12 | (14/14) Accurately ripped
13 | (14/14) Accurately ripped
14 | (14/14) Accurately ripped
15 | (14/14) Accurately ripped
16 | (13/14) Accurately ripped


==== Log checksum 82DDFD0A1C79AAF8AF728C1E2E74E278B7D68970BBC6678B9AF317BB0C784B97 ====

• Rob Halford - Vocals
• Glenn Tipton - Guitar
• K.K.Downing - Guitar
• Ian Hill - Bass
• Dave Holland - Drums

Produced by Tom Allom
Engineered by Patrice Wilkison Levinsohn
Assistant Engineer: Charles Dye Mixed at Criteria Recording Studios, Miami
Mastered by Mike Fuller, Miami
Lossless (FLAC)*
http://uploaded.net/file/2e12s7yc/JP1987PL428P215LOS.rar

All Covers (PNG)
http://uploaded.net/file/la73o2nm/JP1987PL428P215COV.rar

Lossy HQ (320 Kbps CBR)
http://uploaded.net/file/draetm35/JP1987PL428P215MP3.rar

* Original CD -> EAC image, embedded cuesheet & more, foobar2000 ready, etc.
(all CUEs, LOGs and other technical info includes in the internal "CD_Support" archive).

Please, do not write these links at any web pages. Enjoy & keep the files alive!
Huge thanks to my friend Джонни for original CD!