Subcategories
Tags
Language
Tags

Justin Bieber - Justice (2021) [Japan]

Posted By: BlondStyle
Justin Bieber - Justice (2021) [Japan]

Justin Bieber - Justice (2021) [Japan]
Pop, Dance-Pop, Electronic | EAC Rip | FLAC, Img+CUE+LOG+Scans (PNG) | 52:36 | 900,60 Mb
Label: SB Projects/School Boy/Def Jam Recordings (Japan) | Cat.# UICD-6233 | Released: 2021-03-19

"Justice" is the 6th studio album by Canadian singer Justin Bieber. It was released through Def Jam Recordings on March 19, 2021, thirteen months after his 5th studio album, "Changes" (2020). The album features guest appearances from Khalid, Chance the Rapper, the Kid Laroi, Dominic Fike, Daniel Caesar, Giveon, Beam, Burna Boy, Benny Blanco, as well as Lil Uzi Vert, Jaden, Quavo, DaBaby, and Tori Kelly on the deluxe edition. One of the alternate cover discs features an appearance from TroyBoi and another alternate cover disc includes a vocal contribution from Poo Bear. Its production was handled by Virtual Riot, Andrew Watt, Skrillex, Finneas, Jon Bellion, Benny Blanco, the Monsters & Strangerz, Bieber and more. "Justice" was preceded by the release of singles "Holy", "Lonely", "Anyone", and "Hold On", all of which reached Top 20 in the United States, at # 3, 12, 6, and 20, respectively. The album's 5th single "Peaches", featuring Daniel Caesar and Giveon, debuted atop the Billboard Hot 100 chart, becoming Bieber's 7th #1 single in the US (and 4th to debut at the summit). In addition, "Justice" marked Bieber's 2nd album to yield a US chart-topper, following "Purpose" (2015). "Justice" debuted atop the charts of 10 countries, including the US Billboard 200, where it moved 154,000 album-equivalent units in its 1st week. It became Bieber's 8th #1 album on the chart, and at 27 years old, made him the youngest soloist to achieve 8 #1 albums in the US. Along with "Peaches" debuting at #1 on the Billboard Hot 100 the same week, Bieber became the 1st male soloist ever to debut atop the Hot 100 and Billboard 200 simultaneously. On the same day, only 10 days after the album's release, the album was certified Gold by the RIAA. "Justice" received generally favourable reviews from music critics, with praise focused on its production and Bieber's vocal execution, while others deprecated the album's concept and lyricism.
~Wikipedia

Justin Bieber - Justice (2021) [Japan]

No one was looking to Justin Bieber for a ruminative and nuanced view on race relations, but the singer made some choices here that aren't merely ineffectual. They're foolish. The voice of Martin Luther King, Jr. is twice used on this album that otherwise has nothing to do with justice. It's first used as the intro to an airy love ballad containing standard fawning Bieber-isms like "Two seconds without you's like two months, and that's too much." A lengthier segment from one of King's statements on civil disobedience leads to a song of devotion that seems to have been written after hours spent watching clips of early MTV (coincidentally when the channel's play list was zero-percent Black). To wit, just as King was willing to sacrifice his life for equality, Bieber is willing to walk through flames for a kiss that could kill. Disregarding the inapt title and interludes, Justice is a decent addition to Bieber's catalog. It's distinguished by a variety of pop modes that includes vaporous synth rock and strumming acoustic ballads, hip-hop gospel and bedroom EDM, and sun-dazed R&B and contemporary Afrobeat, each one with astutely selected producers and featured artists. The Chance the Rapper collaboration "Holy," restrained ballads "Lonely" and "Anyone," and the tear-jerking empath anthem "Hold On" were all hits before the album was released. Altogether, they accurately forecasted the record's lack of Kidz Bop-friendly pop trifles and TikTok takeover bids, that there would be no retreads of "Sorry" or "Yummy." The upshot is that Justice is one of Bieber's steadiest releases, among the easiest to play from start to finish. The only overdone aspect is the low self-esteem and unworthiness the lyrics either suggest or flatly express in almost every song.
~Review by Andy Kellman

Justin Bieber - Justice (2021) [Japan]

Justin Bieber - Justice (2021) [Japan]




Release of this album/CD: 2021, March, 19 [CD SB Projects/School Boy Records/Def Jam Recordings/Raymond Braun Media Group (Japan), Cat.# UICD-6233 / EAN: 4988031426395]
℗&© 2021 Def Jam Recordings, a Division of UMG Recordings, Inc.
International / USM, a Universal Music Company.
Marketed & Distributed by Universal Music LLC.
Made in Japan


Notes: Japanese edition bonus material includes two Japan only bonus tracks.

Justin Bieber - Justice (2021) [Japan]

Credits:

Executive Producer – Scott "Scooter" Braun, Usher Raymond III
Producer – Josh Gudwin
Vocals, Executive-Producer – Justin Bieber


Tracklist:

01. 2 Much (02:33)
02. Deserve You (03:07)
03. As I Am (feat. Khalid) (02:54)
04. Off My Face (02:36)
05. Holy (feat. Chance The Rapper) (03:32)
06. Unstable (feat. The Kid Laroi) (02:38)
07. MLK Interlude (01:44)
08. Die For You (feat. Dominic Fike) (03:18)
09. Hold On (02:51)
10. Somebody (02:59)
11. Ghost (02:33)
12. Peaches (feat. Daniel Caesar & Giveon) (03:18)
13. Love You Different (feat. Beam) (03:07)
14. Loved By You (feat. Burna Boy) (02:39)
15. Anyone (03:11)
16. Lonely (with Benny Blanco) (02:29)
Bonus Tracks:
17. Hailey (03:13)
18. Angels Speak (03:52)

Exact Audio Copy V1.3 from 2. September 2016

EAC extraction logfile from 4. May 2021, 19:01

Justin Bieber / Justice

Used drive : PIONEER BD-RW BDR-208D Adapter: 1 ID: 0

Read mode : Secure
Utilize accurate stream : Yes
Defeat audio cache : Yes
Make use of C2 pointers : No

Read offset correction : 667
Overread into Lead-In and Lead-Out : No
Fill up missing offset samples with silence : Yes
Delete leading and trailing silent blocks : No
Null samples used in CRC calculations : Yes
Used interface : Native Win32 interface for Win NT & 2000

Used output format : Internal WAV Routines
Sample format : 44.100 Hz; 16 Bit; Stereo


TOC of the extracted CD

Track | Start | Length | Start sector | End sector
––––––––––––––––––––––––––––-
1 | 0:00.00 | 2:32.59 | 0 | 11458
2 | 2:32.59 | 3:07.18 | 11459 | 25501
3 | 5:40.02 | 2:54.31 | 25502 | 38582
4 | 8:34.33 | 2:36.35 | 38583 | 50317
5 | 11:10.68 | 3:32.07 | 50318 | 66224
6 | 14:43.00 | 2:38.24 | 66225 | 78098
7 | 17:21.24 | 1:44.01 | 78099 | 85899
8 | 19:05.25 | 3:18.32 | 85900 | 100781
9 | 22:23.57 | 2:50.61 | 100782 | 113592
10 | 25:14.43 | 2:59.31 | 113593 | 127048
11 | 28:13.74 | 2:33.14 | 127049 | 138537
12 | 30:47.13 | 3:18.06 | 138538 | 153393
13 | 34:05.19 | 3:06.52 | 153394 | 167395
14 | 37:11.71 | 2:39.19 | 167396 | 179339
15 | 39:51.15 | 3:10.58 | 179340 | 193647
16 | 43:01.73 | 2:29.15 | 193648 | 204837
17 | 45:31.13 | 3:13.26 | 204838 | 219338
18 | 48:44.39 | 3:51.54 | 219339 | 236717


Range status and errors

Selected range

Filename D:\BlondStyle\Justin Bieber - Justice.wav

Peak level 98.2 %
Extraction speed 6.7 X
Range quality 100.0 %
Test CRC 9182930F
Copy CRC 9182930F
Copy OK

No errors occurred


AccurateRip summary

Track 1 not present in database
Track 2 not present in database
Track 3 not present in database
Track 4 not present in database
Track 5 not present in database
Track 6 not present in database
Track 7 not present in database
Track 8 not present in database
Track 9 not present in database
Track 10 not present in database
Track 11 not present in database
Track 12 not present in database
Track 13 not present in database
Track 14 not present in database
Track 15 not present in database
Track 16 not present in database
Track 17 not present in database
Track 18 not present in database

None of the tracks are present in the AccurateRip database

End of status report

–– CUETools DB Plugin V2.1.6

[CTDB TOCID: XuYiv9ppv9hzR58xgvQDwveq3j0-] found
Submit result: XuYiv9ppv9hzR58xgvQDwveq3j0- has been confirmed
Track | CTDB Status
1 | (9/9) Accurately ripped
2 | (9/9) Accurately ripped
3 | (9/9) Accurately ripped
4 | (9/9) Accurately ripped
5 | (9/9) Accurately ripped
6 | (9/9) Accurately ripped
7 | (9/9) Accurately ripped
8 | (9/9) Accurately ripped
9 | (9/9) Accurately ripped
10 | (9/9) Accurately ripped
11 | (9/9) Accurately ripped
12 | (9/9) Accurately ripped
13 | (9/9) Accurately ripped
14 | (9/9) Accurately ripped
15 | (9/9) Accurately ripped
16 | (9/9) Accurately ripped
17 | (9/9) Accurately ripped
18 | (9/9) Accurately ripped


==== Log checksum 932F45DDEB13960BEC171DB276179B85EB71A641E23B4884B588D918A66435C3 ====

––––––––––––––––––––––––––––––––––––––––
Analyzed: Justin Bieber / Justice
––––––––––––––––––––––––––––––––––––––––

DR Peak RMS Duration Track
––––––––––––––––––––––––––––––––––––––––
DR6 -0.25 dB -8.09 dB 2:33 01-2 Much
DR4 -0.23 dB -6.60 dB 3:07 02-Deserve You
DR5 -0.23 dB -8.29 dB 2:54 03-As I Am (feat. Khalid)
DR7 -0.27 dB -8.93 dB 2:36 04-Off My Face
DR5 -0.21 dB -7.60 dB 3:32 05-Holy (feat. Chance The Rapper)
DR7 -0.26 dB -8.18 dB 2:38 06-Unstable (feat. The Kid Laroi)
DR11 -0.29 dB -14.51 dB 1:44 07-MLK Interlude
DR5 -0.21 dB -7.16 dB 3:18 08-Die For You (feat. Dominic Fike)
DR4 -0.21 dB -5.55 dB 2:51 09-Hold On
DR4 -0.24 dB -5.70 dB 2:59 10-Somebody
DR5 -0.19 dB -7.61 dB 2:33 11-Ghost
DR6 -0.16 dB -7.15 dB 3:18 12-Peaches (feat. Daniel Caesar & Giveon)
DR4 -0.18 dB -6.73 dB 3:07 13-Love You Different (feat. Beam)
DR5 -0.23 dB -7.99 dB 2:39 14-Loved By You (feat. Burna Boy)
DR5 -0.23 dB -7.87 dB 3:11 15-Anyone
DR5 -0.25 dB -7.27 dB 2:29 16-Lonely (with Benny Blanco)
DR5 -0.22 dB -6.89 dB 3:13 17-Hailey (Bonus Track)
DR7 -0.26 dB -8.37 dB 3:52 18-Angels Speak (Bonus Track)
––––––––––––––––––––––––––––––––––––––––

Number of tracks: 18
Official DR value: DR6

Samplerate: 44100 Hz
Channels: 2
Bits per sample: 16
Bitrate: 859 kbps
Codec: FLAC
================================================================================

♫~Welcome To My Blog~♫

password: BlondStyle