Subcategories

Jyrki 69 - Helsinki Vampire (2017)

Posted By: popsakov
Jyrki 69 - Helsinki Vampire (2017)

Jyrki 69 - Helsinki Vampire (2017)
EAC Rip | FLAC (Img) + Cue + Log ~ 356 Mb | Full Scans (PNG, 400 dpi) ~ 79 Mb | RAR 5% Recovery
Melodic Gothic Rock | Cleopatra Records #CLO 0538

2017 debut solo album from the frontman for Finnish goth metal icons The 69 Eyes, who've sold millions of albums worldwide. Jyrki's dark and brooding croon mixed with atmospheric keyboards and heavy guitars make this one of the most anticipated releases of the year, with tracks already being featured in several g films including the horror film Sunset Society (starring Lemmy from Motörhead), and Halloween Hell House (starring 21 Jump Street's Richard Grieco). In their early years, The 69 Eyes' sound was closer to glam metal, but since the album Blessed Be they have shifted into gothic rock. Jyrki's low and operatic vocal tone is reminiscent of fellow musician Peter Steele of the gothic metal band Type O Negative and has been heavily influenced by Elvis Presley, Jim Morrison, Iggy Pop, David Bowie and Glenn Danzig.

***************

Jyrki 69 - Helsinki Vampire (2017)

Jyrki 69 - Helsinki Vampire (2017)

Track List:

01. Ad Infinitum [7:51]
02. Versailles [5:06]
03. Spanish Steps [7:36]
04. Bloodlust [4:20]
05. Last Halloween [4:09]
06. Happy Birthday [3:43]
07. Call of the Night [4:30]
08. Perfection [4:54]
09. Close your Eyes [4:39]
10. In your Dreams [3:19]
11. Sayonara [5:02]

Exact Audio Copy V1.0 beta 3 from 29. August 2011

EAC extraction logfile from 28. October 2017, 12:27

Jyrki 69 / Helsinki Vampire

Used drive : PIONEER BD-RW BDR-TD03 Adapter: 0 ID: 1

Read mode : Secure
Utilize accurate stream : Yes
Defeat audio cache : Yes
Make use of C2 pointers : No

Read offset correction : 667
Overread into Lead-In and Lead-Out : No
Fill up missing offset samples with silence : Yes
Delete leading and trailing silent blocks : No
Null samples used in CRC calculations : Yes
Used interface : Native Win32 interface for Win NT & 2000

Used output format : User Defined Encoder
Selected bitrate : 768 kBit/s
Quality : High
Add ID3 tag : No
Command line compressor : C:\Program Files (x86)\Exact Audio Copy\FLAC\FLAC.EXE
Additional command line options : -6 -V -T "ARTIST=%artist%" -T "TITLE=%title%" -T "ALBUM=%albumtitle%" -T "DATE=%year%" -T "TRACKNUMBER=%tracknr%" -T "GENRE=%genre%" -T "COMMENT=%comment%" -T "BAND=%albuminterpret%" -T "ALBUMARTIST=%albuminterpret%" -T "COMPOSER=%composer%" %haslyrics%–tag-from-file=LYRICS="%lyricsfile%"%haslyrics% -T "DISCNUMBER=%cdnumber%" -T "TOTALDISCS=%totalcds%" -T "TOTALTRACKS=%numtracks%" %hascover%–picture="%coverfile%"%hascover% %source% -o %dest%


TOC of the extracted CD

Track | Start | Length | Start sector | End sector
––––––––––––––––––––––––––––-
1 | 0:00.00 | 7:50.57 | 0 | 35306
2 | 7:50.57 | 5:05.69 | 35307 | 58250
3 | 12:56.51 | 7:36.00 | 58251 | 92450
4 | 20:32.51 | 4:20.00 | 92451 | 111950
5 | 24:52.51 | 4:08.52 | 111951 | 130602
6 | 29:01.28 | 3:43.28 | 130603 | 147355
7 | 32:44.56 | 4:30.25 | 147356 | 167630
8 | 37:15.06 | 4:54.00 | 167631 | 189680
9 | 42:09.06 | 4:39.23 | 189681 | 210628
10 | 46:48.29 | 3:18.46 | 210629 | 225524
11 | 50:07.00 | 5:01.53 | 225525 | 248152


Range status and errors

Selected range

Filename C:\Users\Deris\Desktop\Jyrki6917\Jyrki 69 - Helsinki Vampire.wav

Peak level 100.0 %
Extraction speed 2.5 X
Range quality 99.9 %
Test CRC 2BA12441
Copy CRC 2BA12441
Copy OK

No errors occurred


AccurateRip summary

Track 1 not present in database
Track 2 not present in database
Track 3 not present in database
Track 4 not present in database
Track 5 not present in database
Track 6 not present in database
Track 7 not present in database
Track 8 not present in database
Track 9 not present in database
Track 10 not present in database
Track 11 not present in database

None of the tracks are present in the AccurateRip database

End of status report

–– CUETools DB Plugin V2.1.3

[CTDB TOCID: 0uvjrMJhK61igYUgiiSVQatQ0uc-] found, Submit result: 0uvjrMJhK61igYUgiiSVQatQ0uc- has been confirmed
[dd54a918] (1/1) Accurately ripped


==== Log checksum 37F295F7D66CB631E240DE217F2DD803E634BF6DBDD572EFBDA064EC6B122AE8 ====

foobar2000 1.3.16 / Dynamic Range Meter 1.1.1
log date: 2017-10-30 11:21:39

––––––––––––––––––––––––––––––––––––––––
Analyzed: Jyrki 69 / Helsinki Vampire
––––––––––––––––––––––––––––––––––––––––

DR Peak RMS Duration Track
––––––––––––––––––––––––––––––––––––––––
DR6 0.00 dB -8.81 dB 7:51 01-Ad Infinitum
DR7 0.00 dB -8.91 dB 5:06 02-Versailles
DR5 0.00 dB -7.50 dB 7:36 03-Spanish Steps
DR6 0.00 dB -6.65 dB 4:20 04-Bloodlust
DR6 0.00 dB -7.67 dB 4:09 05-Last Halloween
DR10 -0.05 dB -13.46 dB 3:43 06-Happy Birthday
DR7 -0.06 dB -8.55 dB 4:30 07-Call of the Night
DR9 -0.10 dB -10.04 dB 4:54 08-Perfection
DR8 0.00 dB -9.27 dB 4:39 09-Close your Eyes
DR7 0.00 dB -7.51 dB 3:19 10-In your Dreams
DR7 0.00 dB -9.33 dB 5:02 11-Sayonara
––––––––––––––––––––––––––––––––––––––––

Number of tracks: 11
Official DR value: DR7

Samplerate: 44100 Hz
Channels: 2
Bits per sample: 16
Bitrate: 861 kbps
Codec: FLAC
================================================================================

[CUETools log; Date: 30.10.2017 11:21:54; Version: 2.1.5]
[CTDB TOCID: 0uvjrMJhK61igYUgiiSVQatQ0uc-] found.
Track | CTDB Status
1 | (2/2) Accurately ripped
2 | (2/2) Accurately ripped
3 | (2/2) Accurately ripped
4 | (2/2) Accurately ripped
5 | (2/2) Accurately ripped
6 | (2/2) Accurately ripped
7 | (2/2) Accurately ripped
8 | (2/2) Accurately ripped
9 | (2/2) Accurately ripped
10 | (2/2) Accurately ripped
11 | (2/2) Accurately ripped
[AccurateRip ID: 0018ae82-00cf912b-960cec0b] disk not present in database.

Track Peak [ CRC32 ] [W/O NULL] [ LOG ]
– 100,0 [2BA12441] [7FAE0048] CRC32
01 100,0 [5650AA30] [E0D5E008]
02 100,0 [1E67EA91] [D2991238]
03 100,0 [FFB4CCDE] [D45036BE]
04 100,0 [BDA5141E] [6DDCA20D]
05 100,0 [BA3D5828] [249B6984]
06 99,4 [935A4063] [AF1A2DD0]
07 99,3 [C0659A8C] [805E1756]
08 98,8 [B6A8276B] [C44967E4]
09 100,0 [47A1CE0B] [5DAE1EAE]
10 100,0 [E1278911] [175DD83B]
11 100,0 [A5DF9D89] [4ABC817D]

Jyrki 69 - Helsinki Vampire (2017)

All thanks go to Boris1

>>> My Blog <<<

Download from icerbox.com: