Subcategories

Kevin Bloody Wilson - Kev's Back (The Return Of The Yobbo) (1985) {1990 CBS Australia} **[RE-UP]**

Posted By: TestTickles
Kevin Bloody Wilson - Kev's Back (The Return Of The Yobbo) (1985) {1990 CBS Australia} **[RE-UP]**

Kevin Bloody Wilson - Kev's Back (The Return Of The Yobbo) (1985) {1990 CBS Australia}
EAC Rip | FLAC with CUE and log | scans | 208 mb
MP3 CBR 320kbps | RAR | 93 mb
Genre: comedy

Kev's Back (The Return Of The Yobbo) is the 1985 album from Australian comedian Kevin Bloody Wilson. This is taken from a CD released by CBS Australia in 1990.

Kevin Bloody Wilson - Kev's Back (The Return Of The Yobbo) (1985) {1990 CBS Australia} **[RE-UP]**

1. The Last Lager Waltz (4:36)
2. That's What He Really Said (3:49)
3. Kev's Courtin' Song (3:57)
4. Breathe Through My Ears (3:44)
5. Mick The Master Farter (4:47)
6. Living Next Door To Alan (4:35)
7. The Pubic Hair Song (4:21)
8. It Was Over (Kev's Lament) (2:54)
9. Dick'taphone (4:57)
10. Hey Santa Claus (2:48)

Exact Audio Copy V1.1 from 23. June 2015

EAC extraction logfile from 18. September 2016, 8:45

Kevin Bloody Wilson / Kev's Back (The Return Of The Yobbo)

Used drive : TEAC DVD-ROM DV-28SW Adapter: 1 ID: 0

Read mode : Secure
Utilize accurate stream : Yes
Defeat audio cache : Yes
Make use of C2 pointers : No

Read offset correction : 6
Overread into Lead-In and Lead-Out : No
Fill up missing offset samples with silence : Yes
Delete leading and trailing silent blocks : No
Null samples used in CRC calculations : Yes
Used interface : Native Win32 interface for Win NT & 2000
Gap handling : Appended to previous track

Used output format : Internal WAV Routines
Sample format : 44.100 Hz; 16 Bit; Stereo


TOC of the extracted CD

Track | Start | Length | Start sector | End sector
––––––––––––––––––––––––––––-
1 | 0:00.00 | 4:36.10 | 0 | 20709
2 | 4:36.10 | 3:49.32 | 20710 | 37916
3 | 8:25.42 | 3:57.43 | 37917 | 55734
4 | 12:23.10 | 3:44.30 | 55735 | 72564
5 | 16:07.40 | 4:47.60 | 72565 | 94149
6 | 20:55.25 | 4:35.47 | 94150 | 114821
7 | 25:30.72 | 4:21.23 | 114822 | 134419
8 | 29:52.20 | 2:54.67 | 134420 | 147536
9 | 32:47.12 | 4:57.10 | 147537 | 169821
10 | 37:44.22 | 2:48.50 | 169822 | 182471


Track 1

Filename C:\My Documents\My FLAC\Kevin Bloody Wilson - Kev's Back (The Return Of The Yobbo) (1985) [FLAC] {1990 CBS Australia}\01 - The Last Lager Waltz.wav

Pre-gap length 0:00:02.00

Peak level 96.4 %
Extraction speed 2.6 X
Track quality 100.0 %
Test CRC F481E62D
Copy CRC F481E62D
Accurately ripped (confidence 1) [FB8FA644] (AR v2)
Copy OK

Track 2

Filename C:\My Documents\My FLAC\Kevin Bloody Wilson - Kev's Back (The Return Of The Yobbo) (1985) [FLAC] {1990 CBS Australia}\02 - That's What He Really Said.wav

Pre-gap length 0:00:01.30

Peak level 55.5 %
Extraction speed 2.6 X
Track quality 99.9 %
Test CRC 2DF0A843
Copy CRC 2DF0A843
Accurately ripped (confidence 1) [B9B53E28] (AR v2)
Copy OK

Track 3

Filename C:\My Documents\My FLAC\Kevin Bloody Wilson - Kev's Back (The Return Of The Yobbo) (1985) [FLAC] {1990 CBS Australia}\03 - Kev's Courtin' Song.wav

Pre-gap length 0:00:01.50

Peak level 58.7 %
Extraction speed 3.4 X
Track quality 100.0 %
Test CRC BCCBEB0F
Copy CRC BCCBEB0F
Accurately ripped (confidence 1) [83DC9272] (AR v2)
Copy OK

Track 4

Filename C:\My Documents\My FLAC\Kevin Bloody Wilson - Kev's Back (The Return Of The Yobbo) (1985) [FLAC] {1990 CBS Australia}\04 - Breathe Through My Ears.wav

Pre-gap length 0:00:02.18

Peak level 47.6 %
Extraction speed 3.0 X
Track quality 99.9 %
Test CRC 0E77A1B9
Copy CRC 0E77A1B9
Accurately ripped (confidence 1) [7B1F0713] (AR v2)
Copy OK

Track 5

Filename C:\My Documents\My FLAC\Kevin Bloody Wilson - Kev's Back (The Return Of The Yobbo) (1985) [FLAC] {1990 CBS Australia}\05 - Mick The Master Farter.wav

Pre-gap length 0:00:02.45

Peak level 94.3 %
Extraction speed 3.4 X
Track quality 99.9 %
Test CRC 155E8434
Copy CRC 155E8434
Accurately ripped (confidence 1) [5B461FBD] (AR v2)
Copy OK

Track 6

Filename C:\My Documents\My FLAC\Kevin Bloody Wilson - Kev's Back (The Return Of The Yobbo) (1985) [FLAC] {1990 CBS Australia}\06 - Living Next Door To Alan.wav

Peak level 81.1 %
Extraction speed 4.2 X
Track quality 100.0 %
Test CRC 6E75AD66
Copy CRC 6E75AD66
Accurately ripped (confidence 1) [2401C55F] (AR v2)
Copy OK

Track 7

Filename C:\My Documents\My FLAC\Kevin Bloody Wilson - Kev's Back (The Return Of The Yobbo) (1985) [FLAC] {1990 CBS Australia}\07 - The Pubic Hair Song.wav

Pre-gap length 0:00:02.67

Peak level 60.4 %
Extraction speed 4.3 X
Track quality 100.0 %
Test CRC EC70B496
Copy CRC EC70B496
Accurately ripped (confidence 1) [83E7E676] (AR v2)
Copy OK

Track 8

Filename C:\My Documents\My FLAC\Kevin Bloody Wilson - Kev's Back (The Return Of The Yobbo) (1985) [FLAC] {1990 CBS Australia}\08 - It Was Over (Kev's Lament).wav

Pre-gap length 0:00:02.55

Peak level 56.2 %
Extraction speed 4.2 X
Track quality 100.0 %
Test CRC 7A712712
Copy CRC 7A712712
Accurately ripped (confidence 1) [B0B9B745] (AR v2)
Copy OK

Track 9

Filename C:\My Documents\My FLAC\Kevin Bloody Wilson - Kev's Back (The Return Of The Yobbo) (1985) [FLAC] {1990 CBS Australia}\09 - Dick'taphone.wav

Pre-gap length 0:00:02.37

Peak level 100.0 %
Extraction speed 4.2 X
Track quality 99.9 %
Test CRC CF808AA0
Copy CRC CF808AA0
Accurately ripped (confidence 1) [7811A6C2] (AR v2)
Copy OK

Track 10

Filename C:\My Documents\My FLAC\Kevin Bloody Wilson - Kev's Back (The Return Of The Yobbo) (1985) [FLAC] {1990 CBS Australia}\10 - Hey Santa Claus.wav

Pre-gap length 0:00:01.70

Peak level 63.6 %
Extraction speed 3.6 X
Track quality 99.9 %
Test CRC E6ABFA1B
Copy CRC E6ABFA1B
Accurately ripped (confidence 1) [D6FFFBDB] (AR v2)
Copy OK


All tracks accurately ripped

No errors occurred

End of status report

–– CUETools DB Plugin V2.1.6

[CTDB TOCID: UwW28SJwFOvFt1GFPQ2iLxEN2vA-] found
Submit result: UwW28SJwFOvFt1GFPQ2iLxEN2vA- has been confirmed
Track | CTDB Status
1 | (4/4) Accurately ripped
2 | (4/4) Accurately ripped
3 | (2/4) Accurately ripped
4 | (2/4) Accurately ripped
5 | (2/4) Accurately ripped
6 | (3/4) Accurately ripped
7 | (4/4) Accurately ripped
8 | (4/4) Accurately ripped
9 | (4/4) Accurately ripped
10 | (4/4) Accurately ripped


==== Log checksum B9D190E087304C54827FB2CC3D0FAC7B152C7155A262539D6750418A6D9E2CFF ====


Kevin Bloody Wilson - Kev's Back (The Return Of The Yobbo) (1985) {1990 CBS Australia} **[RE-UP]**