Khachaturian Trio - Masterpieces of Armenian classical music (2015)

Posted By: Aregak
Khachaturian Trio  - Masterpieces of Armenian classical music (2015)

Khachaturian Trio - Masterpieces of Armenian classical music (2015)
EAC Rip | FLAC, TRACKs+CUE, LOG | Covers | 1cd, 247.58 MB
Classical | Label: Khachaturian Trio | Catalog Number: no

Khachaturian trio was founded as trio “Arsika” in 1999. It has toured extensively throughout the USA, Central and South America, Switzerland, United Kingdom, Germany, Austria, China, Bulgaria, Czech Republic, Australia, Moldova, Georgia, Lithuania, Latvia, Russia and Armenia.

They performed in such halls, as Musikverein, Wien, Laiezhalle, Hamburg, Gewandhaus, Leipzig, Gasteig-Philharmonie, Munich, Purcell Room, London. The Trio has participated in a number of prestigious festivals, the Festival de las Artes (Costa Rica), Festival International Cervantino (Mexico), "Russiche Kammermusikfest" in Hamburg, to name a few. Trio’s performances have been frequently broadcasted by TV and Radio. Five CDs, dedicated to Armenian and Russian music, were recorded by musicians. Double-CD, dedicated to chamber music of Aram Khachaturian, including all his solo sonatas, Mono-CD of Alexandre Arutyunyan's music, trios by Tchaikovsky, Arensky (d-moll), Babadjanyan, Schostakovich (e-moll), and CD, dedicated to the music of Armenian modern composers (Adjemian, Babayan, Chaushian).
Performer:
Khachaturian Trio:
Armine Grigoryan, piano
Karen Shahgaldyan, violin
Karen Kocharyan, cello

Tracklisting:
Komitas`
01. Vagharshapat dance, transc. by Vache Sharafyan (02:05)
02. Habrban (01:27)
03. Al Aylukhes (02:16)
Sayat-Nova`
04. Armenian song 'Ashkharums akh chim qashi', trancs. by Karen Ananyan (05:48)
E.Mirzoyan`
05. Shushanik, transc. by Ruben Asatryan (05:16)
A. Babadjanyan`
06. Nocturne, transc. by Ruben Asatryan (05:17)
A.Arutiunian`
07. 'Dance' for violin and piano (03:20)
08. 'Impromptu' for cello and piano (03:49)
A. Arutiunian-A. Babadjanyan`
09. 'Armenian rhapsody' for two pianos, with Sona Barseghyan (05:42)
A.Khachaturian`
10. Excerpts to 'Masquerade' drama, Romance, arr. for piano trio by Avetik Pivazyan (03:24)
11. Valse (04:05)
Three excerpts from 'Gayane' ballet
12. 'Cradle song', arr. for piano trio by Avetik Pivazyan (04:44)
13. Dance of Karen and Nuneh, arr. for piano trio by Avetik Pivazyan (01:52)
14. 'Sabre dance', arr. for piano trio by Ruben Asatryan (04:45)
15. 'Cradle song' (1923) (02:08)
16. 'Adagio' from 'Spartacus' ballet, arr. for piano trio by Avetik Pivazyan (08:31)

Exact Audio Copy V1.0 beta 3 from 29. August 2011

EAC extraction logfile from 23. August 2016, 22:01

Khachaturian Trio / Masterpieces of Armenian classical music

Used drive : PIONEER DVD-RW DVR-221L Adapter: 2 ID: 0

Read mode : Secure
Utilize accurate stream : Yes
Defeat audio cache : Yes
Make use of C2 pointers : No

Read offset correction : 6
Overread into Lead-In and Lead-Out : No
Fill up missing offset samples with silence : Yes
Delete leading and trailing silent blocks : No
Null samples used in CRC calculations : Yes
Used interface : Installed external ASPI interface
Gap handling : Appended to previous track

Used output format : User Defined Encoder
Selected bitrate : 768 kBit/s
Quality : High
Add ID3 tag : No
Command line compressor : C:\Program Files\Exact Audio Copy\Flac\flac.exe
Additional command line options : -6 -V -T "ARTIST=%artist%" -T "TITLE=%title%" -T "ALBUM=%albumtitle%" -T "DATE=%year%" -T "TRACKNUMBER=%tracknr%" -T "GENRE=%genre%" -T "COMMENT=%comment%" -T "ALBUMARTIST=%albuminterpret%" -T "COMPOSER=%composer%" -T "DISCNUMBER=%cdnumber%" -T "TOTALDISCS=%totalcds%" -T "TOTALTRACKS=%numtracks%" %source% -o %dest%


TOC of the extracted CD

Track | Start | Length | Start sector | End sector
––––––––––––––––––––––––––––-
1 | 0:00.00 | 2:05.32 | 0 | 9406
2 | 2:05.32 | 1:27.26 | 9407 | 15957
3 | 3:32.58 | 2:16.30 | 15958 | 26187
4 | 5:49.13 | 5:47.69 | 26188 | 52281
5 | 11:37.07 | 5:15.65 | 52282 | 75971
6 | 16:52.72 | 5:17.29 | 75972 | 99775
7 | 22:10.26 | 3:20.30 | 99776 | 114805
8 | 25:30.56 | 3:49.34 | 114806 | 132014
9 | 29:20.15 | 5:41.56 | 132015 | 157645
10 | 35:01.71 | 3:23.71 | 157646 | 172941
11 | 38:25.67 | 4:05.14 | 172942 | 191330
12 | 42:31.06 | 4:44.31 | 191331 | 212661
13 | 47:15.37 | 1:51.61 | 212662 | 221047
14 | 49:07.23 | 4:44.56 | 221048 | 242403
15 | 53:52.04 | 2:08.12 | 242404 | 252015
16 | 56:00.16 | 8:31.01 | 252016 | 290341


Track 1

Filename D:\EAC\01 - Komitas` Vagharshapat dance, transc. by Vache Sharafyan.wav

Pre-gap length 0:00:02.00

Peak level 90.0 %
Extraction speed 4.1 X
Track quality 100.0 %
Test CRC C6B87308
Copy CRC C6B87308
Track not present in AccurateRip database
Copy OK

Track 2

Filename D:\EAC\02 - Habrban.wav

Peak level 90.0 %
Extraction speed 4.1 X
Track quality 100.0 %
Test CRC CAAC5989
Copy CRC CAAC5989
Track not present in AccurateRip database
Copy OK

Track 3

Filename D:\EAC\03 - Al Aylukhes.wav

Peak level 89.9 %
Extraction speed 4.7 X
Track quality 100.0 %
Test CRC CF421304
Copy CRC CF421304
Track not present in AccurateRip database
Copy OK

Track 4

Filename D:\EAC\04 - Sayat-Nova` Armenian song 'Ashkharums akh chim qashi', trancs. by Karen Ananyan.wav

Peak level 98.0 %
Extraction speed 4.8 X
Track quality 99.9 %
Test CRC 3682106B
Copy CRC 3682106B
Track not present in AccurateRip database
Copy OK

Track 5

Filename D:\EAC\05 - E.Mirzoyan` Shushanik, transc. by Ruben Asatryan.wav

Peak level 98.0 %
Extraction speed 6.4 X
Track quality 100.0 %
Test CRC 7FAD2976
Copy CRC 7FAD2976
Track not present in AccurateRip database
Copy OK

Track 6

Filename D:\EAC\06 - A. Babadjanyan` Nocturne, transc. by Ruben Asatryan.wav

Peak level 74.1 %
Extraction speed 5.8 X
Track quality 99.9 %
Test CRC CA48E7F7
Copy CRC CA48E7F7
Track not present in AccurateRip database
Copy OK

Track 7

Filename D:\EAC\07 - A.Arutiunian` 'Dance' for violin and piano.wav

Peak level 94.1 %
Extraction speed 6.7 X
Track quality 100.0 %
Test CRC 765235CB
Copy CRC 765235CB
Track not present in AccurateRip database
Copy OK

Track 8

Filename D:\EAC\08 - 'Impromptu' for cello and piano.wav

Peak level 89.1 %
Extraction speed 7.3 X
Track quality 100.0 %
Test CRC D1D4DA5C
Copy CRC D1D4DA5C
Track not present in AccurateRip database
Copy OK

Track 9

Filename D:\EAC\09 - A. Arutiunian-A. Babadjanyan` 'Armenian rhapsody' for two pianos, with Sona Barseghyan.wav

Peak level 94.1 %
Extraction speed 7.9 X
Track quality 100.0 %
Test CRC A9C1F52C
Copy CRC A9C1F52C
Track not present in AccurateRip database
Copy OK

Track 10

Filename D:\EAC\10 - A.Khachaturian` Excerpts to 'Masquerade' drama, Romance, arr. for piano trio by Avetik Pivazyan.wav

Peak level 98.0 %
Extraction speed 7.8 X
Track quality 100.0 %
Test CRC C25A68D9
Copy CRC C25A68D9
Track not present in AccurateRip database
Copy OK

Track 11

Filename D:\EAC\11 - Valse.wav

Peak level 97.8 %
Extraction speed 8.3 X
Track quality 100.0 %
Test CRC ED6EFCD1
Copy CRC ED6EFCD1
Track not present in AccurateRip database
Copy OK

Track 12

Filename D:\EAC\12 - Three excerpts from 'Gayane' ballet- 'Cradle song', arr. for piano trio by Avetik Pivazyan.wav

Peak level 82.9 %
Extraction speed 8.6 X
Track quality 100.0 %
Test CRC AAD35A5A
Copy CRC AAD35A5A
Track not present in AccurateRip database
Copy OK

Track 13

Filename D:\EAC\13 - Dance of Karen and Nuneh, arr. for piano trio by Avetik Pivazyan.wav

Peak level 97.9 %
Extraction speed 7.4 X
Track quality 100.0 %
Test CRC 969BAB7D
Copy CRC 969BAB7D
Track not present in AccurateRip database
Copy OK

Track 14

Filename D:\EAC\14 - 'Sabre dance', arr. for piano trio by Ruben Asatryan.wav

Peak level 90.0 %
Extraction speed 8.9 X
Track quality 100.0 %
Test CRC 0B10A34C
Copy CRC 0B10A34C
Track not present in AccurateRip database
Copy OK

Track 15

Filename D:\EAC\15 - 'Cradle song' (1923).wav

Peak level 87.2 %
Extraction speed 5.8 X
Track quality 99.9 %
Test CRC 3A5B8ECA
Copy CRC 3A5B8ECA
Track not present in AccurateRip database
Copy OK

Track 16

Filename D:\EAC\16 - 'Adagio' from ''Spartacus'' ballet, arr. for piano trio by Avetik Pivazyan.wav

Peak level 76.0 %
Extraction speed 7.5 X
Track quality 100.0 %
Test CRC E4BE8D40
Copy CRC E4BE8D40
Track not present in AccurateRip database
Copy OK


None of the tracks are present in the AccurateRip database

No errors occurred

End of status report

==== Log checksum 27ABE1AD69BAC829ECD72C0C490035F7AADD8F7BBBF93574DF5AB97B4F95D720 ====