Subcategories

Kaledon - Legend Of The Forgotten Reign - Chapter III: The Way Of The Light (2005)

Posted By: Andi_Deris
Kaledon - Legend Of The Forgotten Reign - Chapter III: The Way Of The Light (2005)

Kaledon - Legend Of The Forgotten Reign - Chapter III: The Way Of The Light (2005)
EAC Rip | WavPack (.wv): Image+Cue+Log | 525 Mb | MP3 CBR 320 kbps | 182 Mb | Scans | Time: 01:04:52
Genre: Power Metal | Label: SteelBorn Records | Cat.№: SB CD-009

The genre of epic, speedy and symphonic power metal has pretty much been dominated by bands like Rhapsody and Skylark up to this point. Labyrinth have also dabbled with the speedy symphonic sound and relative newcomers Fairyland, really surprised us all with the quality of their debut album Of Wars In Osyrhia. Italy’s Kaledon have always been somewhat of a fringe band up until now. Playing the same sort of epic fantasy based speedy, symphonic power metal as bands like Rhapsody and Skylark, Kaledon has finally delivered the kind of album with Legend Of The Forgotten Reign - Chapter III: The Way Of The Light that should propel them into the ranks of some of the best in the genre.

Kaledon - Legend Of The Forgotten Reign - Chapter III: The Way Of The Light (2005)




Kaledon - Legend Of The Forgotten Reign - Chapter III: The Way Of The Light (2005)


Track Listing

01. The Inexorable Light (6:21)
02. The Glory Starts (4:40)
03. The Angel (3:06)
04. The Hidden Ways (5:19)
05. In The Eyes Of The Queen (5:43)
06. Mighty Son Of The Great Lord (5:41)
07. Voltures In The Air (4:03)
08. Lord Of The Sand (5:22)
09. Black Telepathy (2:48)
10. Come With Me (6:00)
11. Break The Chant (4:10)
12. Sword On The Shoulder (5:02)
13. The Way Of The Light (2:37)
14. Great Night In The Land (4:00)

Produced by Kaledon

The Band

• Alex Mele: lead guitar & vocals
• Claudio Conti: lead & backing vocals
• Tommy Nemesio: rhythm guitar
• Paolo 'Animal' Lezziroli: bass guitar & backing vocals
• Daniele Fuligni: keyboards & piano
• David Folchitto: drums

Kaledon - Legend Of The Forgotten Reign - Chapter III: The Way Of The Light (2005)


Exact Audio Copy V1.0 beta 3 from 29. August 2011

EAC extraction logfile from 31. December 2012, 13:57

Kaledon / Legend Of The Forgotten Reign - Chapter III - The Way Of The Light

Used drive : Optiarc DVD RW AD-7260S Adapter: 3 ID: 0

Read mode : Secure
Utilize accurate stream : Yes
Defeat audio cache : Yes
Make use of C2 pointers : No

Read offset correction : 48
Overread into Lead-In and Lead-Out : No
Fill up missing offset samples with silence : Yes
Delete leading and trailing silent blocks : No
Null samples used in CRC calculations : Yes
Used interface : Native Win32 interface for Win NT & 2000

Used output format : User Defined Encoder
Selected bitrate : 1024 kBit/s
Quality : High
Add ID3 tag : No
Command line compressor : D:\Program Files\Exact Audio Copy\WavPack\wavpack.exe
Additional command line options : -hhx6 -w "Artist=%artist%" -w "Album=%albumtitle%" -w "Year=%year%" -w "Genre=%genre%" -w "Cuesheet=@*.cue" %source% %dest%


TOC of the extracted CD

Track | Start | Length | Start sector | End sector
––––––––––––––––––––––––––––-
1 | 0:00.00 | 6:21.19 | 0 | 28593
2 | 6:21.19 | 4:40.56 | 28594 | 49649
3 | 11:02.00 | 3:06.33 | 49650 | 63632
4 | 14:08.33 | 5:19.42 | 63633 | 87599
5 | 19:28.00 | 5:43.30 | 87600 | 113354
6 | 25:11.30 | 5:41.12 | 113355 | 138941
7 | 30:52.42 | 4:03.16 | 138942 | 157182
8 | 34:55.58 | 5:22.59 | 157183 | 181391
9 | 40:18.42 | 2:48.34 | 181392 | 194025
10 | 43:07.01 | 6:00.64 | 194026 | 221089
11 | 49:07.65 | 4:10.27 | 221090 | 239866
12 | 53:18.17 | 5:02.57 | 239867 | 262573
13 | 58:20.74 | 2:37.15 | 262574 | 274363
14 | 60:58.14 | 4:00.70 | 274364 | 292433


Range status and errors

Selected range

Filename H:\KALEDON [2005] [CD] Legend Of The Forgotten Reign - Chapter 3 - The Way Of The Light [EAC-WV]\Kaledon - Legend Of The Forgotten Reign - Chapter III - The Way Of The Light.wav

Peak level 98.8 %
Extraction speed 4.2 X
Range quality 100.0 %
Test CRC 82CFDC87
Copy CRC 82CFDC87
Copy OK

No errors occurred


AccurateRip summary

Track 1 not present in database
Track 2 not present in database
Track 3 not present in database
Track 4 not present in database
Track 5 not present in database
Track 6 not present in database
Track 7 not present in database
Track 8 not present in database
Track 9 not present in database
Track 10 not present in database
Track 11 not present in database
Track 12 not present in database
Track 13 not present in database
Track 14 not present in database

None of the tracks are present in the AccurateRip database

End of status report

–– CUETools DB Plugin V2.1.3

[CTDB TOCID: cUJoSqg4lbanzBoLZk4RHhKsQlk-] disk not present in database, Submit result: cUJoSqg4lbanzBoLZk4RHhKsQlk- has been uploaded


==== Log checksum D49387C465D7947F750F765C2E687F04AE20D7160C007E575DB19DD5656CE803 ====


Many thanks to the original uploader: FireSnake