Subcategories

Kaledon - Legend Of The Forgotten Reign - Chapter V: A New Era Begins (2008)

Posted By: Andi_Deris
Kaledon - Legend Of The Forgotten Reign - Chapter V: A New Era Begins (2008)

Kaledon - Legend Of The Forgotten Reign - Chapter V: A New Era Begins (2008)
EAC Rip | WavPack (.wv): Image+Cue+Log | 387 Mb | MP3 CBR 320 kbps | 149 Mb | Scans | Time: 45:32
Genre: Power Metal | Label: Hellion Records | Cat.№: HE 510708

Legend Of The Forgotten Reign - Chapter V: A New Era Begins brings us to the latest chapter in the epic six part saga from the ever imaginative mind of guitarist Alex Mele and his band Kaledon. A massive epic based in England in the 1300s, has not only seen the story progress, but the band as well. Album after album, the song writing quality and the overall sound of the band has improved immensely with Chapter IV: Twilight Of The Gods being their crowning achievement. With Chapter V: A New Era Begins, Kaledon introduces new vocalist Marco Palazzi and with a new vocalist, comes an almost brand new sound and a "new era" of sorts for Kaledon.

Kaledon - Legend Of The Forgotten Reign - Chapter V: A New Era Begins (2008)




Kaledon - Legend Of The Forgotten Reign - Chapter V: A New Era Begins (2008)


Track Listing

01. A New Man (5:11)
02. A Wounded Friend (4:56)
03. Mozul (4:04)
04. Undeads Again (5:47)
05. The End Of The Green Power (4:25)
06. A Flash In The Sky (4:45)
07. Great Mighty Light (3:19)
08. Greatest Heart (3:43)
09. The God Beyond The Man (5:09)
10. Return To Kaledon (4:13)

Produced by Kaledon

The Band

• Alex Mele: lead guitars & vocals
• Marco Palazzi: lead vocals & keyboards
• Tommy Nemesio: lead guitars & classical guitars
• Daniele Fuligni: hammond, minimoog, arp 2600, piano & keyboards
• Paolo 'Animal' Lezziroli: bass guitar
• David Folchitto: drums

Kaledon - Legend Of The Forgotten Reign - Chapter V: A New Era Begins (2008)


Exact Audio Copy V1.0 beta 3 from 29. August 2011

EAC extraction logfile from 31. December 2012, 1:01

Kaledon / Legend Of The Forgotten Reign - Chapter V - A New Era Begins

Used drive : Optiarc DVD RW AD-7260S Adapter: 3 ID: 0

Read mode : Secure
Utilize accurate stream : Yes
Defeat audio cache : Yes
Make use of C2 pointers : No

Read offset correction : 48
Overread into Lead-In and Lead-Out : No
Fill up missing offset samples with silence : Yes
Delete leading and trailing silent blocks : No
Null samples used in CRC calculations : Yes
Used interface : Native Win32 interface for Win NT & 2000

Used output format : User Defined Encoder
Selected bitrate : 1024 kBit/s
Quality : High
Add ID3 tag : No
Command line compressor : D:\Program Files\Exact Audio Copy\WavPack\wavpack.exe
Additional command line options : -hhx6 -w "Artist=%artist%" -w "Album=%albumtitle%" -w "Year=%year%" -w "Genre=%genre%" -w "Cuesheet=@*.cue" %source% %dest%


TOC of the extracted CD

Track | Start | Length | Start sector | End sector
––––––––––––––––––––––––––––-
1 | 0:00.00 | 5:11.61 | 0 | 23385
2 | 5:11.61 | 4:56.47 | 23386 | 45632
3 | 10:08.33 | 4:04.39 | 45633 | 63971
4 | 14:12.72 | 5:47.58 | 63972 | 90054
5 | 20:00.55 | 4:25.23 | 90055 | 109952
6 | 24:26.03 | 4:45.60 | 109953 | 131387
7 | 29:11.63 | 3:19.18 | 131388 | 146330
8 | 32:31.06 | 3:43.57 | 146331 | 163112
9 | 36:14.63 | 5:09.52 | 163113 | 186339
10 | 41:24.40 | 4:13.18 | 186340 | 205332


Range status and errors

Selected range

Filename H:\KALEDON [2008] [CD] Legend Of The Forgotten Reign - Chapter 5 - A New Era Begins [EAC-WV]\Kaledon - Legend Of The Forgotten Reign - Chapter V - A New Era Begins.wav

Peak level 100.0 %
Extraction speed 3.6 X
Range quality 100.0 %
Test CRC 5AA2676B
Copy CRC 5AA2676B
Copy OK

No errors occurred


AccurateRip summary

Track 1 cannot be verified as accurate (confidence 1) [C7ACC403], AccurateRip returned [AFE87047] (AR v2)
Track 2 cannot be verified as accurate (confidence 1) [1A283D0D], AccurateRip returned [4307AE50] (AR v2)
Track 3 cannot be verified as accurate (confidence 1) [7781EBF0], AccurateRip returned [933072B8] (AR v2)
Track 4 cannot be verified as accurate (confidence 1) [2843CD74], AccurateRip returned [97D6BD90] (AR v2)
Track 5 cannot be verified as accurate (confidence 1) [C4CFE35A], AccurateRip returned [3F25659D] (AR v2)
Track 6 cannot be verified as accurate (confidence 1) [E29AAE60], AccurateRip returned [948F48A6] (AR v2)
Track 7 cannot be verified as accurate (confidence 1) [089B6024], AccurateRip returned [EC21CA69] (AR v2)
Track 8 cannot be verified as accurate (confidence 1) [7D5B6B4A], AccurateRip returned [2E4B287C] (AR v2)
Track 9 cannot be verified as accurate (confidence 1) [3F4D8371], AccurateRip returned [3489C9A6] (AR v2)
Track 10 cannot be verified as accurate (confidence 1) [F4C87503], AccurateRip returned [F90603E5] (AR v2)

No tracks could be verified as accurate
You may have a different pressing from the one(s) in the database

End of status report

–– CUETools DB Plugin V2.1.3

[CTDB TOCID: vku81vm9ez.qCaGdep7uvxCaw84-] disk not present in database, Submit result: vku81vm9ez.qCaGdep7uvxCaw84- has been uploaded


==== Log checksum C308DE6039377A222ECFB689C2133F30584E87A69DEF3F408D66F366027AA6ED ====


Many thanks to the original uploader: FireSnake