Subcategories

Kaledon - Legend Of The Forgotten Reign - Chapter I: The Destruction (2002)

Posted By: Andi_Deris
Kaledon - Legend Of The Forgotten Reign - Chapter I: The Destruction (2002)

Kaledon - Legend Of The Forgotten Reign - Chapter I: The Destruction (2002)
EAC Rip | WavPack (.wv): Image+Cue+Log | 401 Mb | MP3 CBR 320 kbps | 154 Mb | Scans | Time: 48:24
Genre: Power Metal | Label: SteelBorn Records | Cat.№: SB CD-004

Veteran power metallers Kaledon has released their first album Legend Of The Forgotten Reign - Chapter I: The Destruction, the 1st installment of the saga started in 2002. Power Metal as its best: powerful, melodic and extremely captivating! The beautiful artwork has been made by renowned artist JP Fournier (Edguy, Avantasia, Immortal). Recommended to genre fans, as are all Kaledon albums. Nothing mind-blowing for sure, but Kaledon are good at what they do.

Kaledon - Legend Of The Forgotten Reign - Chapter I: The Destruction (2002)




Kaledon - Legend Of The Forgotten Reign - Chapter I: The Destruction (2002)


Track Listing

01. The Calling (2:02)
02. In Search Of Kaledon (3:38)
03. Army Of The Undead King (3:38)
04. Thunder In The Sky (3:31)
05. Streets Of The Kingdom (5:47)
06. Spirit Of The Dragon (4:19)
07. Hero Of The Land (3:28)
08. God Says Yes (4:26)
09. Deep Forest (2:45)
10. Desert Of Warriors (5:32)
11. The Jackal's Fall (9:18)

Produced by Kaledon

The Band

• Alex Mele: lead, rhythm guitar & backing vocals
• Claudio Conti: lead & backing vocals
• Tommy Nemesio: rhythm guitar
• Paolo 'Animal' Lezziroli: bass guitar & backing vocals
• Daniele Fuligni: keyboards, piano & harpsichord
• David Folchitto: drums

Kaledon - Legend Of The Forgotten Reign - Chapter I: The Destruction (2002)


Exact Audio Copy V1.0 beta 1 from 15. November 2010

EAC extraction logfile from 9. January 2012, 19:26

Kaledon / Legend Of The Forgotten Reign - Chapter 1 - The Destruction

Used drive : Optiarc DVD RW AD-7260S Adapter: 3 ID: 0

Read mode : Secure
Utilize accurate stream : Yes
Defeat audio cache : Yes
Make use of C2 pointers : No

Read offset correction : 48
Overread into Lead-In and Lead-Out : No
Fill up missing offset samples with silence : Yes
Delete leading and trailing silent blocks : No
Null samples used in CRC calculations : Yes
Used interface : Installed external ASPI interface

Used output format : User Defined Encoder
Selected bitrate : 1024 kBit/s
Quality : High
Add ID3 tag : No
Command line compressor : D:\Program Files\Exact Audio Copy\WavPack\wavpack.exe
Additional command line options : -hhx6 -w "Artist=%a" -w "Album=%g" -w "Year=%y" -w "Genre=%m" -w "Cuesheet=@*.cue" %s %d


TOC of the extracted CD

Track | Start | Length | Start sector | End sector
––––––––––––––––––––––––––––-
1 | 0:00.00 | 2:02.30 | 0 | 9179
2 | 2:02.30 | 3:38.39 | 9180 | 25568
3 | 5:40.69 | 3:38.45 | 25569 | 41963
4 | 9:19.39 | 3:31.07 | 41964 | 57795
5 | 12:50.46 | 5:47.19 | 57796 | 83839
6 | 18:37.65 | 4:19.09 | 83840 | 103273
7 | 22:56.74 | 3:28.42 | 103274 | 118915
8 | 26:25.41 | 4:26.49 | 118916 | 138914
9 | 30:52.15 | 2:45.48 | 138915 | 151337
10 | 33:37.63 | 5:32.64 | 151338 | 176301
11 | 39:10.52 | 9:18.40 | 176302 | 218191


Range status and errors

Selected range

Filename H:\KALEDON [2002] [CD] Legend Of The Forgotten Reign - Chapter 1 - The Destruction [EAC-WV]\Kaledon - Legend Of The Forgotten Reign - Chapter 1 - The Destruction.wav

Peak level 100.0 %
Extraction speed 0.7 X
Range quality 99.9 %
Test CRC 90FFCE1D
Copy CRC 90FFCE1D
Copy OK

No errors occurred


AccurateRip summary

Track 1 not present in database
Track 2 not present in database
Track 3 not present in database
Track 4 not present in database
Track 5 not present in database
Track 6 not present in database
Track 7 not present in database
Track 8 not present in database
Track 9 not present in database
Track 10 not present in database
Track 11 not present in database

None of the tracks are present in the AccurateRip database

End of status report

==== Log checksum 35DAC9AE03B7360FC6DA58102DBD304D0D2E8CF901674305B95E09457C1A9240 ====


Many thanks to the original uploader: FireSnake