Subcategories

Kasabian - Kasabian (2004) CD + DVD Editon [Re-Up]

Posted By: Designol
Kasabian - Kasabian (2004) CD + DVD Editon [Re-Up]

Kasabian - Kasabian (2004) CD + DVD Editon
EAC | FLAC | Tracks (Cue&Log) ~ 329 Mb | Mp3 (CBR320) ~ 129 Mb | Time: 00:53:21
DVD5 | VIDEO_TS | PAL | 4:3 (720x576), VBR | LPCM 2.0, 1536 kbps | 00:45:06 | ~ 2.7 Gb
Indie Rock, Alternative Rock, BritPop | Label: RCA | # PARADISE17 | Scans included

Kasabian is the debut studio album by British rock band Kasabian, released on 6 September 2004. Four singles were released from the album; the highest chart position on the UK Album Chart was number 4. Like the kid brothers of the Cooper Temple Clause more interested in reviving the sound of the Stones Roses' anthemia 'Begging You' than tweaking their well coiffeured heads, Kasabian blast through thirteen tracks on their debut, self-titled album like a gang of pumped up storm-troopers with a penchant for aggro. Kasabian are as cocky as Oasis, as party-inducing as the Mondays & as inventive as Primal Scream, in short they are set to be huge. Stay out of their line of fire though, 'cause these boys have a deadly arsenal. The UK limited edition version is a double-sided DualDisc and has a glow-in-the-dark cover. The DVD element contains a making-of documentary and several music videos.

Pre-release hubbub might have you thinking Kasabian's debut is the Stone Roses' firstborn all over again, or that it's a Screamadelica for its generation. Almost, but these lads could use one more spin around the U.K.'s hippest clubs to really polish their craft to Madchester-in-its-prime level. What their debut succeeds in providing is out-of-the-gate excitement, a trippy sack of playful ideas, and a keen understanding of what makes hips sway and heads bob. If hearing Stereolab backing Ian Brown is your dream, "Reason Is Treason" should be your indie rock seducer. If you always wished prog rock danced in baggy jeans, "Test Transmission" should do it. A couple tracks that are show-ers more than grow-ers keep the album from being perfect, but when a Disneyland/Perrey-Kingsley-style keyboard riff plays over a dubby landscape and then gives way to an earnest, catchy hippie chorus, you can't help but fall in love with this ambitious, smart band. You can fill the ashtray with roaches during the cinematic "Butcher Blues" and make your Tangerine Dream-loving friend happy with the space rock meets angst rock of "U Boat." Lead singer Tom Meighan is one part Jagger and one part Richards, with a Beatles haircut and quote-generating, rebellious-interview mouth. They all live together commune style and their sleeves and badges use near-Rage Against the Machine imagery. Heavy, but their debut is a shaggy kind of charming that would work better if you tripped over it instead of having the hype trying to squeeze the word "revolutionary" out of your throat. Painting them as rock's saviors just makes the overly ambitious moments of the album look all that much bigger. Some serious heartbreak, or life for a little while outside of the commune, should broaden these songwriters' abilities to the level promised, but for now they're just exciting, groovy, and proud fathers of a dazzling debut. [Kasabian's debut was also issued in a DualDisc with bonus videos for "Club Foot" and "Reason Is Treason" on the DVD portion.]

Review by David Jeffries, Allmusic.com

Kasabian - Kasabian (2004) CD + DVD Editon [Re-Up]



Tracklist:

01. Club Foot (3:34)
02. Processed Beats (3:08)
03. Reason Is Treason (4:35)
04. I.D (4:47)
05. Orange (0:46)
06. L.S.F. (Lost Souls Forever) (3:18)
07. Running Battle (4:16)
08. Test Transmission (3:55)
09. Pinch Roller (1:14)
10. Cutt Off (4:38)
11. Butcher Blues (4:29)
12. Ovary Stripe (3:50)
13. U Boat (10:51)


Exact Audio Copy V0.99 prebeta 3 from 28. July 2007

EAC extraction logfile from 13. March 2010, 21:02

Kasabian / Kasabian

Used drive : Optiarc BD ROM BC-5100S Adapter: 2 ID: 2

Read mode : Secure
Utilize accurate stream : Yes
Defeat audio cache : Yes
Make use of C2 pointers : No

Read offset correction : 667
Overread into Lead-In and Lead-Out : No
Fill up missing offset samples with silence : Yes
Delete leading and trailing silent blocks : No
Null samples used in CRC calculations : Yes
Used interface : Native Win32 interface for Win NT & 2000
Gap handling : Appended to previous track

Used output format : User Defined Encoder
Selected bitrate : 768 kBit/s
Quality : High
Add ID3 tag : No
Command line compressor : C:\Program Files\Exact Audio Copy\FLAC\FLAC.EXE
Additional command line options : -V -8 -T "artist=%a" -T "title=%t" -T "album=%g" -T "date=%y" -T "tracknumber=%n" -T "genre=%m" %s


TOC of the extracted CD

Track | Start | Length | Start sector | End sector
––––––––––––––––––––––––––––-
1 | 0:00.00 | 3:34.35 | 0 | 16084
2 | 3:34.35 | 3:07.60 | 16085 | 30169
3 | 6:42.20 | 4:35.33 | 30170 | 50827
4 | 11:17.53 | 4:47.25 | 50828 | 72377
5 | 16:05.03 | 0:46.22 | 72378 | 75849
6 | 16:51.25 | 3:17.45 | 75850 | 90669
7 | 20:08.70 | 4:15.50 | 90670 | 109844
8 | 24:24.45 | 3:55.23 | 109845 | 127492
9 | 28:19.68 | 1:14.00 | 127493 | 133042
10 | 29:33.68 | 4:38.12 | 133043 | 153904
11 | 34:12.05 | 4:28.68 | 153905 | 174072
12 | 38:40.73 | 3:50.30 | 174073 | 191352
13 | 42:31.28 | 10:50.40 | 191353 | 240142
14 | 55:53.68 | 0:45.54 | 251543 | 254971


Track 1

Filename E:\2004 - Kasabian\01 Kasabian - Club Foot.wav

Pre-gap length 0:00:02.00

Peak level 100.0 %
Track quality 100.0 %
Test CRC 25A217FE
Copy CRC 25A217FE
Accurately ripped (confidence 112) [71C31925]
Copy OK

Track 2

Filename E:\2004 - Kasabian\02 Kasabian - Processed Beats.wav

Peak level 100.0 %
Track quality 100.0 %
Test CRC 5CAA4673
Copy CRC 5CAA4673
Accurately ripped (confidence 112) [F196A50B]
Copy OK

Track 3

Filename E:\2004 - Kasabian\03 Kasabian - Reason Is Treason.wav

Peak level 100.0 %
Track quality 100.0 %
Test CRC FCC3E63A
Copy CRC FCC3E63A
Accurately ripped (confidence 114) [6E988D5D]
Copy OK

Track 4

Filename E:\2004 - Kasabian\04 Kasabian - I.D.wav

Peak level 100.0 %
Track quality 100.0 %
Test CRC 8477C148
Copy CRC 8477C148
Accurately ripped (confidence 114) [90D8C5C3]
Copy OK

Track 5

Filename E:\2004 - Kasabian\05 Kasabian - Orange.wav

Peak level 65.2 %
Track quality 100.0 %
Test CRC F2FB4CC8
Copy CRC F2FB4CC8
Accurately ripped (confidence 116) [1FADBF8D]
Copy OK

Track 6

Filename E:\2004 - Kasabian\06 Kasabian - L.S.F. (Lost Souls Forever).wav

Peak level 100.0 %
Track quality 100.0 %
Test CRC 6BDBAD73
Copy CRC 6BDBAD73
Accurately ripped (confidence 113) [2AD0715B]
Copy OK

Track 7

Filename E:\2004 - Kasabian\07 Kasabian - Running Battle.wav

Peak level 100.0 %
Track quality 99.9 %
Test CRC F79B6192
Copy CRC F79B6192
Accurately ripped (confidence 113) [CCA65A52]
Copy OK

Track 8

Filename E:\2004 - Kasabian\08 Kasabian - Test Transmission.wav

Peak level 100.0 %
Track quality 100.0 %
Test CRC 1A55292D
Copy CRC 1A55292D
Accurately ripped (confidence 112) [C20DCC87]
Copy OK

Track 9

Filename E:\2004 - Kasabian\09 Kasabian - Pinch Roller.wav

Peak level 63.2 %
Track quality 100.0 %
Test CRC BEFB30B9
Copy CRC BEFB30B9
Accurately ripped (confidence 113) [EF250FCF]
Copy OK

Track 10

Filename E:\2004 - Kasabian\10 Kasabian - Cutt Off.wav

Peak level 100.0 %
Track quality 100.0 %
Test CRC 8472280F
Copy CRC 8472280F
Accurately ripped (confidence 114) [9A208095]
Copy OK

Track 11

Filename E:\2004 - Kasabian\11 Kasabian - Butcher Blues.wav

Peak level 100.0 %
Track quality 100.0 %
Test CRC B17645DF
Copy CRC B17645DF
Accurately ripped (confidence 114) [D551EF6C]
Copy OK

Track 12

Filename E:\2004 - Kasabian\12 Kasabian - Ovary Stripe.wav

Peak level 100.0 %
Track quality 100.0 %
Test CRC 5B319615
Copy CRC 5B319615
Accurately ripped (confidence 113) [827918AA]
Copy OK

Track 13

Filename E:\2004 - Kasabian\13 Kasabian - U Boat.wav

Peak level 100.0 %
Track quality 99.9 %
Test CRC 0385978A
Copy CRC 0385978A
Accurately ripped (confidence 106) [6ABEC174]
Copy OK


All tracks accurately ripped

No errors occurred

End of status report

[CUETools log; Date: 14.10.2018 18:42:24; Version: 2.1.4]
CD-Extra data track length 00:45:54.
[CTDB TOCID: crBELZFtaAw5bTdkhsiWshIOSOc-] found.
Track | CTDB Status
1 | (590/596) Accurately ripped
2 | (592/596) Accurately ripped
3 | (591/596) Accurately ripped
4 | (590/596) Accurately ripped
5 | (593/596) Accurately ripped
6 | (595/596) Accurately ripped
7 | (593/596) Accurately ripped
8 | (593/596) Accurately ripped
9 | (593/596) Accurately ripped
10 | (590/596) Accurately ripped
11 | (589/596) Accurately ripped
12 | (589/596) Accurately ripped
13 | (587/596) Accurately ripped
[AccurateRip ID: 001697d9-00e47990-a90d470e] found.
Track [ CRC | V2 ] Status
01 [71c31925|e464fbdd] (175+200/375) Accurately ripped
02 [f196a50b|b83ade15] (175+200/375) Accurately ripped
03 [6e988d5d|090e1a14] (177+200/377) Accurately ripped
04 [90d8c5c3|698e7d46] (177+200/377) Accurately ripped
05 [1fadbf8d|6b753fc9] (178+200/378) Accurately ripped
06 [2ad0715b|71347049] (175+200/375) Accurately ripped
07 [cca65a52|f1826b35] (176+200/376) Accurately ripped
08 [c20dcc87|6fcd9127] (175+200/375) Accurately ripped
09 [ef250fcf|0d4f670f] (176+200/376) Accurately ripped
10 [9a208095|7e715893] (177+200/377) Accurately ripped
11 [d551ef6c|296c8930] (176+200/376) Accurately ripped
12 [827918aa|29778d44] (173+200/373) Accurately ripped
13 [6abec174|f4e3bbb0] (166+200/366) Accurately ripped

Track Peak [ CRC32 ] [W/O NULL] [ LOG ]
– 100,0 [18624883] [5D4868A0]
01 100,0 [25A217FE] [0A78C22A] CRC32
02 100,0 [5CAA4673] [3D3A4CD6] CRC32
03 100,0 [FCC3E63A] [DED1FC30] CRC32
04 100,0 [8477C148] [9FC96FCA] CRC32
05 65,2 [F2FB4CC8] [9293C58C] CRC32
06 100,0 [6BDBAD73] [2067BBA6] CRC32
07 100,0 [F79B6192] [17F57697] CRC32
08 100,0 [1A55292D] [52092522] CRC32
09 63,2 [BEFB30B9] [4BCB8625] CRC32
10 100,0 [8472280F] [F3ACABFA] CRC32
11 100,0 [B17645DF] [BB4C2AB4] CRC32
12 100,0 [5B319615] [D0E49CF0] CRC32
13 100,0 [0385978A] [BB3E3600] CRC32

foobar2000 1.2 / Dynamic Range Meter 1.1.1
log date: 2018-10-14 18:50:44

––––––––––––––––––––––––––––––––––––––––
Analyzed: Kasabian / Kasabian
––––––––––––––––––––––––––––––––––––––––

DR Peak RMS Duration Track
––––––––––––––––––––––––––––––––––––––––
DR7 0.00 dB -9.41 dB 3:34 01-Club Foot
DR9 0.00 dB -10.79 dB 3:08 02-Processed Beats
DR8 0.00 dB -10.01 dB 4:35 03-Reason Is Treason
DR10 0.00 dB -11.29 dB 4:47 04-I.D
DR9 -3.71 dB -16.49 dB 0:46 05-Orange
DR9 0.00 dB -10.67 dB 3:18 06-L.S.F. (Lost Souls Forever)
DR9 0.00 dB -11.63 dB 4:16 07-Running Battle
DR7 0.00 dB -8.30 dB 3:55 08-Test Transmission
DR10 -3.97 dB -19.00 dB 1:14 09-Pinch Roller
DR7 0.00 dB -10.16 dB 4:38 10-Cutt Off
DR8 0.00 dB -10.39 dB 4:29 11-Butcher Blues
DR7 0.00 dB -9.59 dB 3:50 12-Ovary Stripe
DR8 0.00 dB -12.90 dB 10:51 13-U Boat
––––––––––––––––––––––––––––––––––––––––

Number of tracks: 13
Official DR value: DR8

Samplerate: 44100 Hz
Channels: 2
Bits per sample: 16
Bitrate: 647 kbps
Codec: FLAC
================================================================================


Kasabian - Kasabian (2004) CD + DVD Editon [Re-Up]

Kasabian - Kasabian (2004) CD + DVD Editon [Re-Up]

Kasabian - Kasabian (2004) CD + DVD Editon [Re-Up]

Kasabian - Kasabian (2004) CD + DVD Editon [Re-Up]

Kasabian - Kasabian (2004) CD + DVD Editon [Re-Up]

Kasabian - Kasabian (2004) CD + DVD Editon [Re-Up]

Kasabian - Kasabian (2004) CD + DVD Editon [Re-Up]


DVD Tracklist:
1. Reason Is Treason (video) - 3:46
2. Club Foot (video) - 3:54
3. L.S.F (Lost Souls Forever) (video) - 4:06
4. Making Of Club Foot (video) - 14:34
5. Making Of L.S.F (Lost Souls Forever) (video) - 8:43
6. Field Of Dreams (shot at Farmstock gig in May 2005) - 10:03


Kasabian - Kasabian (2004) CD + DVD Editon [Re-Up]