Subcategories

Kashif - Kashif (1983) {Funky Town Grooves}

Posted By: tiburon
Kashif - Kashif (1983) {Funky Town Grooves}

Kashif - Kashif (1983) {Funky Town Grooves}
EAC 1.3 | FLAC tracks level 8 | Cue+Log+M3U | Full Scans 300dpi | 444MB + 5% Recovery
MP3 CBR 320 Kbps | 150MB + 5% Recovery
Genre: Funk, Soul

Kashif burst onto the music scene with his Billboard R&B single "I Just Gotta Have You." His urgent delivery oozes with vibrancy accompanied by a poppin' rhythm arrangement and some solid change-ups. It peaked at number five after 20 weeks. "Stone Love" commissions a funky bassline and seductive background vocals which contrast Kashif's zealous intonations. The single topped off at 22. With its moderately aggressive rhythm, "Help Yourself to My Love" finds the Brooklyn native patiently cradling the lyric. This album has one good composition after another. Kashif's adamant deliveries are poisely contrasted by cooing background. Though there are no authentic string and horn ensemble, the fomer B.T. Express member gets optimal use of his sythnesizers and keybaords. This is an excellent debut.
Track List
01. Don't Stop My Love
02. Stone Love
03. I Just Gotta Have You (Lover Turn Me On)
04. Help Yourself to My Love
05. Rumors
06. Say Somethin' Love
07. The Mood (Instrumental Version)
08. All
09. Help Yourself to My Love (Extended Version)
10. I Just Gotta Have You (Lover Turn Me On) (Instrumental)
11. I Just Gotta Have You (Lover Turn Me On) (Single Version)
12. Stone Love (Instrumental)
13. Say Somethin' Love (Single Version)

Produced by Kashif and Morrie Brown


Exact Audio Copy V1.3 from 2. September 2016

EAC extraction logfile from 14. March 2017, 10:41

Kashif / Kashif

Used drive : HP DVD Writer 1260t Adapter: 1 ID: 0

Read mode : Secure
Utilize accurate stream : Yes
Defeat audio cache : Yes
Make use of C2 pointers : No

Read offset correction : 6
Overread into Lead-In and Lead-Out : No
Fill up missing offset samples with silence : Yes
Delete leading and trailing silent blocks : No
Null samples used in CRC calculations : Yes
Used interface : Native Win32 interface for Win NT & 2000
Gap handling : Appended to previous track

Used output format : User Defined Encoder
Selected bitrate : 128 kBit/s
Quality : High
Add ID3 tag : No
Command line compressor : C:\Program Files (x86)\Exact Audio Copy\Flac\flac.exe
Additional command line options : -8 -V -T "ARTIST=%artist%" -T "TITLE=%title%" -T "ALBUM=%albumtitle%" -T "DATE=%year%" -T "TRACKNUMBER=%tracknr%" -T "GENRE=%genre%" -T "PERFORMER=%albuminterpret%" -T "COMPOSER=%composer%" %haslyrics%–tag-from-file=LYRICS="%lyricsfile%"%haslyrics% -T "ALBUMARTIST=%albumartist%" -T "DISCNUMBER=%cdnumber%" -T "TOTALDISCS=%totalcds%" -T "TOTALTRACKS=%numtracks%" -T "COMMENT=%comment%" %source% -o %dest%


TOC of the extracted CD

Track | Start | Length | Start sector | End sector
––––––––––––––––––––––––––––-
1 | 0:00.00 | 4:38.00 | 0 | 20849
2 | 4:38.00 | 5:31.03 | 20850 | 45677
3 | 10:09.03 | 5:50.50 | 45678 | 71977
4 | 15:59.53 | 4:07.73 | 71978 | 90575
5 | 20:07.51 | 4:24.60 | 90576 | 110435
6 | 24:32.36 | 5:16.28 | 110436 | 134163
7 | 29:48.64 | 4:15.27 | 134164 | 153315
8 | 34:04.16 | 4:17.70 | 153316 | 172660
9 | 38:22.11 | 4:43.04 | 172661 | 193889
10 | 43:05.15 | 5:53.72 | 193890 | 220436
11 | 48:59.12 | 4:51.63 | 220437 | 242324
12 | 53:51.00 | 5:25.09 | 242325 | 266708
13 | 59:16.09 | 4:39.12 | 266709 | 287645


Track 1

Filename F:\Music Place\FLAC & WAV\KASHIF\Kashif - Kashif (1983)[FTG FTG283][2012 FLAC]\01. Kashif - Don't Stop My Love.wav

Pre-gap length 0:00:02.00

Peak level 99.6 %
Extraction speed 3.7 X
Track quality 100.0 %
Test CRC D658BC7D
Copy CRC D658BC7D
Cannot be verified as accurate (confidence 2) [6B00DBEA], AccurateRip returned [F0FA7B0B] (AR v2)
Copy OK

Track 2

Filename F:\Music Place\FLAC & WAV\KASHIF\Kashif - Kashif (1983)[FTG FTG283][2012 FLAC]\02. Kashif - Stone Love.wav

Peak level 99.6 %
Extraction speed 4.3 X
Track quality 100.0 %
Test CRC 09D7577D
Copy CRC 09D7577D
Cannot be verified as accurate (confidence 2) [6A132248], AccurateRip returned [5260EAF6] (AR v2)
Copy OK

Track 3

Filename F:\Music Place\FLAC & WAV\KASHIF\Kashif - Kashif (1983)[FTG FTG283][2012 FLAC]\03. Kashif - Just Gotta Have You (Lover Turn Me On).wav

Peak level 99.6 %
Extraction speed 4.8 X
Track quality 100.0 %
Test CRC 6E27E6F6
Copy CRC 6E27E6F6
Cannot be verified as accurate (confidence 2) [1AD054F1], AccurateRip returned [E45EDC6A] (AR v2)
Copy OK

Track 4

Filename F:\Music Place\FLAC & WAV\KASHIF\Kashif - Kashif (1983)[FTG FTG283][2012 FLAC]\04. Kashif - Help Yourself To My Love.wav

Peak level 99.6 %
Extraction speed 4.0 X
Track quality 99.9 %
Test CRC 861556B5
Copy CRC 861556B5
Cannot be verified as accurate (confidence 2) [509AC412], AccurateRip returned [9522FFFF] (AR v2)
Copy OK

Track 5

Filename F:\Music Place\FLAC & WAV\KASHIF\Kashif - Kashif (1983)[FTG FTG283][2012 FLAC]\05. Kashif - Rumours.wav

Peak level 99.6 %
Extraction speed 5.3 X
Track quality 100.0 %
Test CRC 73E727EC
Copy CRC 73E727EC
Cannot be verified as accurate (confidence 2) [1149F73D], AccurateRip returned [ADE1BDA3] (AR v2)
Copy OK

Track 6

Filename F:\Music Place\FLAC & WAV\KASHIF\Kashif - Kashif (1983)[FTG FTG283][2012 FLAC]\06. Kashif - Say Somethin' Love.wav

Peak level 99.6 %
Extraction speed 4.8 X
Track quality 99.9 %
Test CRC E12E9B73
Copy CRC E12E9B73
Cannot be verified as accurate (confidence 2) [6AC50D28], AccurateRip returned [A6A04D42] (AR v2)
Copy OK

Track 7

Filename F:\Music Place\FLAC & WAV\KASHIF\Kashif - Kashif (1983)[FTG FTG283][2012 FLAC]\07. Kashif - The Mood.wav

Peak level 99.6 %
Extraction speed 5.9 X
Track quality 100.0 %
Test CRC C1FC68A9
Copy CRC C1FC68A9
Cannot be verified as accurate (confidence 2) [BC686298], AccurateRip returned [F6AD8332] (AR v2)
Copy OK

Track 8

Filename F:\Music Place\FLAC & WAV\KASHIF\Kashif - Kashif (1983)[FTG FTG283][2012 FLAC]\08. Kashif - All.wav

Peak level 99.6 %
Extraction speed 5.0 X
Track quality 99.9 %
Test CRC 9BC581A3
Copy CRC 9BC581A3
Cannot be verified as accurate (confidence 2) [0114B76C], AccurateRip returned [559BB0D2] (AR v2)
Copy OK

Track 9

Filename F:\Music Place\FLAC & WAV\KASHIF\Kashif - Kashif (1983)[FTG FTG283][2012 FLAC]\09. Kashif - Help Yourself To My Love (12'' Version).wav

Peak level 99.6 %
Extraction speed 6.5 X
Track quality 100.0 %
Test CRC 16B23030
Copy CRC 16B23030
Cannot be verified as accurate (confidence 2) [5BDF9B67], AccurateRip returned [1C98C93A] (AR v2)
Copy OK

Track 10

Filename F:\Music Place\FLAC & WAV\KASHIF\Kashif - Kashif (1983)[FTG FTG283][2012 FLAC]\10. Kashif - Just Gotta Have You (Lover Turn Me On) (Instrumental).wav

Peak level 99.6 %
Extraction speed 6.9 X
Track quality 100.0 %
Test CRC 67C9A17C
Copy CRC 67C9A17C
Cannot be verified as accurate (confidence 2) [14927545], AccurateRip returned [2FAA7AD3] (AR v2)
Copy OK

Track 11

Filename F:\Music Place\FLAC & WAV\KASHIF\Kashif - Kashif (1983)[FTG FTG283][2012 FLAC]\11. Kashif - Just Gotta Have You (Lover Turn Me On) (Single Version).wav

Peak level 99.6 %
Extraction speed 5.8 X
Track quality 99.9 %
Test CRC 7AD37E31
Copy CRC 7AD37E31
Cannot be verified as accurate (confidence 2) [6AC537CA], AccurateRip returned [15DB9FE8] (AR v2)
Copy OK

Track 12

Filename F:\Music Place\FLAC & WAV\KASHIF\Kashif - Kashif (1983)[FTG FTG283][2012 FLAC]\12. Kashif - Stone Love (Instrumental).wav

Peak level 99.6 %
Extraction speed 7.4 X
Track quality 100.0 %
Test CRC 50D80F54
Copy CRC 50D80F54
Cannot be verified as accurate (confidence 2) [10D62598], AccurateRip returned [7E765D14] (AR v2)
Copy OK

Track 13

Filename F:\Music Place\FLAC & WAV\KASHIF\Kashif - Kashif (1983)[FTG FTG283][2012 FLAC]\13. Kashif - Say Somethin' Love (Single Version).wav

Peak level 99.6 %
Extraction speed 7.5 X
Track quality 100.0 %
Test CRC A480EAC5
Copy CRC A480EAC5
Cannot be verified as accurate (confidence 2) [042DF0CB], AccurateRip returned [A1EAAB6E] (AR v2)
Copy OK


No tracks could be verified as accurate
You may have a different pressing from the one(s) in the database

No errors occurred

End of status report

–– CUETools DB Plugin V2.1.6

[CTDB TOCID: XQySX3mNSzhUJXXohWUVUbMG.d8-] found
Submit result: XQySX3mNSzhUJXXohWUVUbMG.d8- has been confirmed
Track | CTDB Status
1 | (4/4) Accurately ripped
2 | (4/4) Accurately ripped
3 | (4/4) Accurately ripped
4 | (4/4) Accurately ripped
5 | (4/4) Accurately ripped
6 | (4/4) Accurately ripped
7 | (4/4) Accurately ripped
8 | (4/4) Accurately ripped
9 | (4/4) Accurately ripped
10 | (4/4) Accurately ripped
11 | (4/4) Accurately ripped
12 | (4/4) Accurately ripped
13 | (4/4) Accurately ripped


==== Log checksum 2A05AF25E6B25F36DE4C14D7247E067FD4CEC902F5ECD551166C4A482E24709C ====

Kashif - Kashif (1983) {Funky Town Grooves}


Thanks to the original ripper