Tags
Language
Tags

Kate Bush - The Sensual World (1989)

Posted By: popsakov
Kate Bush - The Sensual World (1989)

Kate Bush - The Sensual World (1989)
EAC Rip | FLAC (Img) + Cue + Log ~ 316 Mb | MP3 CBR320 ~ 148 Mb
Scans Included (JPG, 600 dpi) | RAR 5% Recovery
Art Rock, Art Pop, Alternative Rock | Columbia #CK 44164 / DIDP 071981

The Sensual World is the sixth studio album by the English singer Kate Bush. It was released in October 1989 and peaked at no 2 on the UK Albums Chart. It has been certified Platinum in the UK, and Gold in the US.
***************
An enchanting songstress, Kate Bush reflects the most heavenly views of love on the aptly titled The Sensual World. The follow-up to Hounds of Love features Bush unafraid to be a temptress, vocally and lyrically. She's a romantic, frolicking over lust and love, but also a lover of life and its spirituality. The album's title track exudes the most sensually abrasive side of Bush, but she is also one to remain emotionally intact with her heart and head. The majority of The Sensual World beams with a carefree spirit of strength and independence. "Love and Anger," which features blistering riffs by Bush's mentor and cohort David Gilmour, thrives on self-analysis – typically cathartic of Bush. Michael Nyman's delicate string arrangements allow the melodic "Reaching Out" to simply arrive, freely floating with Bush's lush declaration ("reaching out for the star/reaching out for the star that explodes") for she's always searching for a common peace, a commonality to make comfort. What makes this artist so intriguing is her look toward the future – she appears to look beyond what's present and find a peculiar celestial atmosphere in which human beings do exist. She's conscious of technology on "Deeper Understanding" and of a greater life on the glam rock experimental "Rocket's Tail (For Rocket)," yet she's still intrinsic to the reality of an individual's heart. "Between a Man and a Woman" depicts pressure and heartbreak, but it's the beauty of "This Woman's Work" that makes The Sensual World the outstanding piece of work that it is. She possesses maternal warmth that's surely inviting, and it's something that's made her one of the most prolific female singer/songwriters to emerge during the 1980s. She's never belonged to a core scene. Bush's intelligence, both as an artist and as a woman, undoubtedly casts her in a league of her own.
~ MacKenzie Wilson, All Music

***************

Kate Bush - The Sensual World (1989)

Kate Bush - The Sensual World (1989)

Track List:

01. The Sensual World [0:03:57.35]
02. Love and Anger [0:04:38.62]
03. The Fog [0:05:10.40]
04. Reaching Out [0:03:12.53]
05. Heads We're Dancing [0:05:20.60]
06. Deeper Understanding [0:04:46.02]
07. Between A Man and A Woman [0:03:30.00]
08. Never Be Mine [0:03:44.15]
09. Rocket's Tail [0:04:07.53]
10. This Woman's Work [0:03:40.12]
11. Walk Straight Down The Middle [0:03:48.43]

Personnel:
Kate Bush - piano, keyboards, vocals, producer
Yanka Rupkina - solo vocalist (6, 9)
Trio Bulgarka - vocals (6, 8, 9)
Alan Stivell - Celtic harp (3, 7), backing vocals (7)
Paddy Bush - mandolin (4), valiha (2), tupan (6), whip (swished fishing rod) (1), backing vocals (2)
Dr. Bush - Dialogue (3)
David Gilmour - guitar (2, 9)
Alan Murphy - guitar (3, 5, 7)
John Giblin - bass (2, 6, 9)
Mick Karn - bass (5)
Del Palmer - bass (1, 4, 7), percussion (5), rhythm guitar (5), engineer, Fairlight CMI percussion, mixing (11)
Eberhard Weber - solid-body electric double bass (8, 11)
Charlie Morgan - drums (1, 4, 6, 11)
Stuart Elliott - drums (2, 3, 5, 7, 8, 9)
Michael Kamen - orchestra arrangement (3, 5, 10)
Michael Nyman - string arrangements (4)
Clare Connors - violin (4)
Nigel Kennedy - violin (3), viola (5)
Jonathan Williams - cello (3, 5, 7)
Justin Pearson - cello (4)
Dónal Lunny - bouzouki (1)
John Sheahan - fiddle (1)
Davy Spillane - whistle (human) (3), whistle (instrument) (3), uilleann pipes (1, 8)

Exact Audio Copy V1.3 from 2. September 2016

EAC extraction logfile from 22. April 2017, 8:19

Kate Bush / The Sensual World

Used drive : PLEXTOR DVDR PX-716A Adapter: 1 ID: 0

Read mode : Secure
Utilize accurate stream : Yes
Defeat audio cache : Yes
Make use of C2 pointers : No

Read offset correction : 30
Overread into Lead-In and Lead-Out : No
Fill up missing offset samples with silence : Yes
Delete leading and trailing silent blocks : No
Null samples used in CRC calculations : Yes
Used interface : Native Win32 interface for Win NT & 2000

Used output format : User Defined Encoder
Selected bitrate : 1024 kBit/s
Quality : High
Add ID3 tag : No
Command line compressor : C:\Program Files (x86)\Exact Audio Copy\FLAC\FLAC.EXE
Additional command line options : -6 -V -T "ARTIST=%artist%" -T "TITLE=%title%" -T "ALBUM=%albumtitle%" -T "DATE=%year%" -T "TRACKNUMBER=%tracknr%" -T "GENRE=%genre%" -T "COMMENT=%comment%" -T "BAND=%albuminterpret%" -T "ALBUMARTIST=%albuminterpret%" -T "COMPOSER=%composer%" %haslyrics%–tag-from-file=LYRICS="%lyricsfile%"%haslyrics% -T "DISCNUMBER=%cdnumber%" -T "TOTALDISCS=%totalcds%" -T "TOTALTRACKS=%numtracks%" %hascover%–picture="%coverfile%"%hascover% %source% -o %dest%


TOC of the extracted CD

Track | Start | Length | Start sector | End sector
––––––––––––––––––––––––––––-
1 | 0:00.00 | 3:57.35 | 0 | 17809
2 | 3:57.35 | 4:38.62 | 17810 | 38721
3 | 8:36.22 | 5:10.40 | 38722 | 62011
4 | 13:46.62 | 3:12.53 | 62012 | 76464
5 | 16:59.40 | 5:20.60 | 76465 | 100524
6 | 22:20.25 | 4:46.02 | 100525 | 121976
7 | 27:06.27 | 3:30.00 | 121977 | 137726
8 | 30:36.27 | 3:44.15 | 137727 | 154541
9 | 34:20.42 | 4:07.53 | 154542 | 173119
10 | 38:28.20 | 3:40.12 | 173120 | 189631
11 | 42:08.32 | 3:48.43 | 189632 | 206774


Range status and errors

Selected range

Filename C:\mm\Kate Bush\1989 - The Sensual World [CK 44164]\Kate Bush - The Sensual World.wav

Peak level 99.8 %
Extraction speed 12.4 X
Range quality 100.0 %
Test CRC 661793E7
Copy CRC 661793E7
Copy OK

No errors occurred


AccurateRip summary

Track 1 accurately ripped (confidence 5) [7B66749F] (AR v2)
Track 2 accurately ripped (confidence 5) [FC078EBE] (AR v2)
Track 3 accurately ripped (confidence 5) [09AB5BE6] (AR v2)
Track 4 accurately ripped (confidence 5) [6888BB5F] (AR v2)
Track 5 accurately ripped (confidence 5) [96A6C157] (AR v2)
Track 6 accurately ripped (confidence 5) [99F75835] (AR v2)
Track 7 accurately ripped (confidence 5) [E954501B] (AR v2)
Track 8 accurately ripped (confidence 5) [EFBDF7D6] (AR v2)
Track 9 accurately ripped (confidence 5) [68E451EE] (AR v2)
Track 10 accurately ripped (confidence 5) [7AF07A73] (AR v2)
Track 11 accurately ripped (confidence 5) [DA9D9950] (AR v2)

All tracks accurately ripped

End of status report

–– CUETools DB Plugin V2.1.6

[CTDB TOCID: PtqluXgeH5ZWCP9kHL0XZar5lcw-] found
Submit result: PtqluXgeH5ZWCP9kHL0XZar5lcw- has been confirmed
Track | CTDB Status
1 | ( 59/205) Accurately ripped
2 | ( 59/205) Accurately ripped
3 | ( 59/205) Accurately ripped
4 | ( 60/205) Accurately ripped
5 | ( 58/205) Accurately ripped, or (1/205) differs in 110 samples @04:17:02,04:17:30-04:17:31,04:17:58,04:18:27,04:18:55,04:21:13-04:21:14,04:21:27-04:21:28,04:21:56,04:21:70,04:22:23,04:22:37,04:22:51,04:22:65-04:22:66,04:23:05,04:23:19,04:23:61
6 | ( 60/205) Accurately ripped
7 | ( 60/205) Accurately ripped
8 | ( 60/205) Accurately ripped
9 | ( 60/205) Accurately ripped
10 | ( 59/205) Accurately ripped
11 | ( 59/205) Accurately ripped

foobar2000 1.2.6 / Dynamic Range Meter 1.1.1
log date: 2017-04-22 13:51:05

––––––––––––––––––––––––––––––––––––––––
Analyzed: Kate Bush / The Sensual World
––––––––––––––––––––––––––––––––––––––––

DR Peak RMS Duration Track
––––––––––––––––––––––––––––––––––––––––
DR13 -2.14 dB -17.20 dB 3:57 01-The Sensual World
DR12 -0.01 dB -14.96 dB 4:39 02-Love and Anger
DR11 -3.07 dB -16.66 dB 5:11 03-The Fog
DR13 -2.08 dB -19.49 dB 3:13 04-Reaching Out
DR12 -0.10 dB -15.86 dB 5:21 05-Heads We're Dancing
DR12 -1.93 dB -16.83 dB 4:46 06-Deeper Understanding
DR12 -1.71 dB -17.20 dB 3:30 07-Between A Man and A Woman
DR11 -2.62 dB -16.09 dB 3:44 08-Never Be Mine
DR13 -0.97 dB -17.31 dB 4:08 09-Rocket's Tail
DR11 -4.87 dB -21.18 dB 3:40 10-This Woman's Work
DR14 -0.59 dB -16.29 dB 3:49 11-Walk Straight Down The Middle
––––––––––––––––––––––––––––––––––––––––

Number of tracks: 11
Official DR value: DR12

Samplerate: 44100 Hz
Channels: 2
Bits per sample: 16
Bitrate: 805 kbps
Codec: FLAC
================================================================================

[CUETools log; Date: 22.04.2017 13:51:22; Version: 2.1.5]
[CTDB TOCID: PtqluXgeH5ZWCP9kHL0XZar5lcw-] found.
Track | CTDB Status
1 | ( 60/206) Accurately ripped
2 | ( 60/206) Accurately ripped
3 | ( 60/206) Accurately ripped
4 | ( 61/206) Accurately ripped
5 | ( 59/206) Accurately ripped, or (1/206) differs in 110 samples @04:17:02,04:17:30-04:17:31,04:17:58,04:18:27,04:18:55,04:21:13-04:21:14,04:21:27-04:21:28,04:21:56,04:21:70,04:22:23,04:22:37,04:22:51,04:22:65-04:22:66,04:23:05,04:23:19,04:23:61
6 | ( 61/206) Accurately ripped
7 | ( 61/206) Accurately ripped
8 | ( 61/206) Accurately ripped
9 | ( 61/206) Accurately ripped
10 | ( 60/206) Accurately ripped
11 | ( 60/206) Accurately ripped
[AccurateRip ID: 0013854b-00a84f17-7d0ac50b] found.
Track [ CRC | V2 ] Status
01 [75b80648|7b66749f] (005+005/329) Accurately ripped
02 [24f070aa|fc078ebe] (006+005/327) Accurately ripped
03 [2d59eea3|09ab5be6] (006+005/330) Accurately ripped
04 [c6bd382e|6888bb5f] (006+005/334) Accurately ripped
05 [da82be02|96a6c157] (006+005/329) Accurately ripped
06 [a3628650|99f75835] (006+005/331) Accurately ripped
07 [1496c732|e954501b] (006+005/334) Accurately ripped
08 [86a56bef|efbdf7d6] (006+005/328) Accurately ripped
09 [1afdc747|68e451ee] (006+005/326) Accurately ripped
10 [61506337|7af07a73] (006+005/331) Accurately ripped
11 [841c687a|da9d9950] (006+005/330) Accurately ripped
Offsetted by 86:
01 [12239e42] (002/329) Accurately ripped
02 [d389e2a7] (002/327) Accurately ripped
03 [7dce7499] (002/330) Accurately ripped
04 [88a3f132] (002/334) Accurately ripped
05 [549653fb] (002/329) Accurately ripped
06 [0be0babf] (002/331) Accurately ripped
07 [12fcc566] (002/334) Accurately ripped
08 [487e0513] (002/328) Accurately ripped
09 [6d0d6dbe] (002/326) Accurately ripped
10 [d8d5c1ab] (003/331) Accurately ripped
11 [aae33f6a] (002/330) Accurately ripped
Offsetted by 117:
01 [8ff26136] (002/329) Accurately ripped
02 [b205744e] (002/327) Accurately ripped
03 [8e0eabfd] (002/330) Accurately ripped
04 [77b9baa3] (002/334) Accurately ripped
05 [3df068af] (002/329) Accurately ripped
06 [3297f2ed] (002/331) Accurately ripped
07 [11f3bd23] (002/334) Accurately ripped
08 [36e8d66c] (002/328) Accurately ripped
09 [d1ff16cf] (002/326) Accurately ripped
10 [0958ed64] (002/331) Accurately ripped
11 [56a1fe02] (002/330) Accurately ripped
Offsetted by 205:
01 [5f1e777b] (002/329) Accurately ripped
02 [0610d19d] (002/327) Accurately ripped
03 [1da00e6c] (002/330) Accurately ripped
04 [5998bc6b] (002/334) Accurately ripped
05 [80b2d5a6] (002/329) Accurately ripped
06 [1945381c] (002/331) Accurately ripped
07 [3d338c52] (002/334) Accurately ripped
08 [d4f14601] (002/328) Accurately ripped
09 [4fa37589] (002/326) Accurately ripped
10 [ce5308d9] (002/331) Accurately ripped
11 [4eaef1c2] (002/330) Accurately ripped
Offsetted by 384:
01 [d8c01b92] (002/329) Accurately ripped
02 [0a665d2c] (002/327) Accurately ripped
03 [4bc7ec3d] (002/330) Accurately ripped
04 [69e07c08] (002/334) Accurately ripped
05 [8cdfd01b] (002/329) Accurately ripped
06 [4a34b849] (002/331) Accurately ripped
07 [32594693] (002/334) Accurately ripped
08 [001b092a] (002/328) Accurately ripped
09 [2c2279ba] (002/326) Accurately ripped
10 [f7b88d46] (002/331) Accurately ripped
11 [78b2047a] (002/330) Accurately ripped
Offsetted by 811:
01 [e4b2c626] (015/329) Accurately ripped
02 [b939d76a] (015/327) Accurately ripped
03 [30d3770d] (015/330) Accurately ripped
04 [d337b1c9] (015/334) Accurately ripped
05 [31139c09] (015/329) Accurately ripped
06 [c1154a27] (014/331) Accurately ripped
07 [ad8783c0] (015/334) Accurately ripped
08 [f4a17a55] (015/328) Accurately ripped
09 [b4f00275] (014/326) Accurately ripped
10 [89cc07ee] (016/331) Accurately ripped
11 [00ab0bf2] (014/330) Accurately ripped
Offsetted by 974:
01 [dd44a16d] (006/329) Accurately ripped
02 [609505d5] (006/327) Accurately ripped
03 [7ac0f12e] (006/330) Accurately ripped
04 [9d59b148] (006/334) Accurately ripped
05 [59b33ce9] (006/329) Accurately ripped
06 [50de10f0] (006/331) Accurately ripped
07 [72f9b156] (006/334) Accurately ripped
08 [4a9cb731] (006/328) Accurately ripped
09 [dafac704] (006/326) Accurately ripped
10 [bb81ef78] (006/331) Accurately ripped
11 [a07d382a] (006/330) Accurately ripped
Offsetted by 1152:
01 [c824f20d] (006/329) Accurately ripped
02 [6b892472] (006/327) Accurately ripped
03 [00baab94] (006/330) Accurately ripped
04 [73504d1c] (006/334) Accurately ripped
05 [a70d41b3] (006/329) Accurately ripped
06 [70f18061] (006/331) Accurately ripped
07 [2332b898] (006/334) Accurately ripped
08 [7f98affc] (006/328) Accurately ripped
09 [05416450] (006/326) Accurately ripped
10 [e322d611] (006/331) Accurately ripped
11 [61dd3c7a] (006/330) Accurately ripped
Offsetted by 1302:
01 [73546750] (009/329) Accurately ripped
02 [63a7ff58] (008/327) Accurately ripped
03 [428d0502] (009/330) Accurately ripped
04 [f72fd534] (009/334) Accurately ripped
05 [c87fc06b] (009/329) Accurately ripped
06 [a1efc04d] (008/331) Accurately ripped
07 [5b8fe1b9] (008/334) Accurately ripped
08 [6ffc3d62] (008/328) Accurately ripped
09 [53b07978] (009/326) Accurately ripped
10 [2eb94613] (009/331) Accurately ripped
11 [b167ad6a] (009/330) Accurately ripped
Offsetted by 1521:
01 [3c6f3803] (005/329) Accurately ripped
02 [6342b65a] (005/327) Accurately ripped
03 [86635de3] (005/330) Accurately ripped
04 [1415c3ab] (005/334) Accurately ripped
05 [32443b24] (005/329) Accurately ripped
06 [1f2ea995] (005/331) Accurately ripped
07 [599d4ab2] (005/334) Accurately ripped
08 [4f8b44f9] (005/328) Accurately ripped
09 [787c47a1] (005/326) Accurately ripped
10 [64e687f2] (005/331) Accurately ripped
11 [34e50062] (005/330) Accurately ripped

Track Peak [ CRC32 ] [W/O NULL] [ LOG ]
– 99,8 [661793E7] [9C1D17EA] CRC32
01 78,1 [95D3A0FE] [2E5072D5]
02 99,8 [18294DDD] [9E00CAA2]
03 70,1 [2F4A34AC] [9FD53FD1]
04 78,6 [34E28902] [82B9B474]
05 98,8 [5C23214C] [8B23E5D4]
06 80,1 [FD90035E] [D859DDD8]
07 82,1 [80CB17D8] [CBCE991B]
08 73,9 [5D85F6A0] [1FA0567D]
09 89,4 [82D7006A] [924FEABB]
10 57,0 [8FD5EDD2] [48170E1E]
11 93,4 [08E56414] [270C45A5]

Kate Bush - The Sensual World (1989)

All thanks go to sergych

> Kate Bush in my blog <