Subcategories
Tags
Language
Tags

Kathy Mattea - Ready For The Storm (1995)

Posted By: popsakov
Kathy Mattea - Ready For The Storm (1995)

Kathy Mattea - Ready For The Storm (1995)
EAC Rip | FLAC (Img) + Cue + Log ~ 280 Mb | MP3 CBR320 ~ 132 Mb
Full Scans | 00:45:30 | RAR 5% Recovery
Country, Folk | Mercury #528 006-2

Kathleen Alice "Kathy" Mattea is an American country music and bluegrass performer who often brings folk, Celtic, and traditional country sounds to her music. Active since 1983 as a recording artist, she has recorded seventeen albums and has charted more than thirty singles on the Billboard Hot Country Singles & Tracks charts.

***************

Kathy Mattea - Ready For The Storm (1995)

Kathy Mattea - Ready For The Storm (1995)

Track List:

01. Rock Me On The Water [0:03:40.17]
02. Last Night I Dreamed Of Loving You [0:03:36.43]
03. Nobody's Gonna Rain On Our Parade [0:03:47.30]
04. Ready For The Storm [0:03:55.55]
05. I Will [0:02:47.10]
06. Standing Knee Deep In A River (Dying Of Thirst) [0:04:12.50]
07. Untasted Honey [0:03:23.70]
08. Mary, Did You Know [0:03:15.70]
09. Asking Us To Dance [0:04:26.10]
10. A Few Good Things Remain [0:03:55.27]
11. Summer Of My Dreams [0:03:58.35]
12. Late In The Day [0:04:30.33]

Exact Audio Copy V1.3 from 2. September 2016

EAC extraction logfile from 4. April 2017, 21:05

Kathy Mattea / Ready For The Storm

Used drive : PLEXTOR DVDR PX-716A Adapter: 1 ID: 0

Read mode : Secure
Utilize accurate stream : Yes
Defeat audio cache : Yes
Make use of C2 pointers : No

Read offset correction : 30
Overread into Lead-In and Lead-Out : No
Fill up missing offset samples with silence : Yes
Delete leading and trailing silent blocks : No
Null samples used in CRC calculations : Yes
Used interface : Native Win32 interface for Win NT & 2000

Used output format : User Defined Encoder
Selected bitrate : 1024 kBit/s
Quality : High
Add ID3 tag : No
Command line compressor : C:\Program Files (x86)\Exact Audio Copy\FLAC\FLAC.EXE
Additional command line options : -6 -V -T "ARTIST=%artist%" -T "TITLE=%title%" -T "ALBUM=%albumtitle%" -T "DATE=%year%" -T "TRACKNUMBER=%tracknr%" -T "GENRE=%genre%" -T "COMMENT=%comment%" -T "BAND=%albuminterpret%" -T "ALBUMARTIST=%albuminterpret%" -T "COMPOSER=%composer%" %haslyrics%–tag-from-file=LYRICS="%lyricsfile%"%haslyrics% -T "DISCNUMBER=%cdnumber%" -T "TOTALDISCS=%totalcds%" -T "TOTALTRACKS=%numtracks%" %hascover%–picture="%coverfile%"%hascover% %source% -o %dest%


TOC of the extracted CD

Track | Start | Length | Start sector | End sector
––––––––––––––––––––––––––––-
1 | 0:00.00 | 3:40.17 | 0 | 16516
2 | 3:40.17 | 3:36.43 | 16517 | 32759
3 | 7:16.60 | 3:47.30 | 32760 | 49814
4 | 11:04.15 | 3:55.55 | 49815 | 67494
5 | 14:59.70 | 2:47.10 | 67495 | 80029
6 | 17:47.05 | 4:12.50 | 80030 | 98979
7 | 21:59.55 | 3:23.70 | 98980 | 114274
8 | 25:23.50 | 3:15.70 | 114275 | 128969
9 | 28:39.45 | 4:26.10 | 128970 | 148929
10 | 33:05.55 | 3:55.27 | 148930 | 166581
11 | 37:01.07 | 3:58.35 | 166582 | 184466
12 | 40:59.42 | 4:30.33 | 184467 | 204749


Range status and errors

Selected range

Filename C:\mm\Kathy Mattea\1995 - Ready For The Storm [528 006-2]\Kathy Mattea - Ready For The Storm.wav

Peak level 100.0 %
Extraction speed 11.9 X
Range quality 99.9 %
Test CRC 59D21312
Copy CRC 59D21312
Copy OK

No errors occurred


AccurateRip summary

Track 1 accurately ripped (confidence 4) [07D1F36F] (AR v2)
Track 2 accurately ripped (confidence 4) [67A9F0CC] (AR v2)
Track 3 accurately ripped (confidence 4) [686D46D9] (AR v2)
Track 4 accurately ripped (confidence 4) [27674A3E] (AR v2)
Track 5 accurately ripped (confidence 4) [CB3B512A] (AR v2)
Track 6 accurately ripped (confidence 4) [1E2B1625] (AR v2)
Track 7 accurately ripped (confidence 4) [6F28DD03] (AR v2)
Track 8 accurately ripped (confidence 4) [3853645C] (AR v2)
Track 9 accurately ripped (confidence 4) [CE0B3907] (AR v2)
Track 10 accurately ripped (confidence 4) [60A93F6C] (AR v2)
Track 11 accurately ripped (confidence 4) [FC942359] (AR v2)
Track 12 accurately ripped (confidence 4) [FDACD64E] (AR v2)

All tracks accurately ripped

End of status report

–– CUETools DB Plugin V2.1.6

[CTDB TOCID: GivZpVsn6G62pAzVMpWK.kmlE5w-] found
Submit result: GivZpVsn6G62pAzVMpWK.kmlE5w- has been confirmed
Track | CTDB Status
1 | (10/10) Accurately ripped
2 | (10/10) Accurately ripped
3 | (10/10) Accurately ripped
4 | (10/10) Accurately ripped
5 | (10/10) Accurately ripped
6 | (10/10) Accurately ripped
7 | (10/10) Accurately ripped
8 | (10/10) Accurately ripped
9 | (10/10) Accurately ripped
10 | (10/10) Accurately ripped
11 | (10/10) Accurately ripped
12 | (10/10) Accurately ripped

[CUETools log; Date: 04.04.2017 22:18:28; Version: 2.1.5]
[CTDB TOCID: GivZpVsn6G62pAzVMpWK.kmlE5w-] found.
Track | CTDB Status
1 | (11/11) Accurately ripped
2 | (11/11) Accurately ripped
3 | (11/11) Accurately ripped
4 | (11/11) Accurately ripped
5 | (11/11) Accurately ripped
6 | (11/11) Accurately ripped
7 | (11/11) Accurately ripped
8 | (11/11) Accurately ripped
9 | (11/11) Accurately ripped
10 | (11/11) Accurately ripped
11 | (11/11) Accurately ripped
12 | (11/11) Accurately ripped
[AccurateRip ID: 0013bd03-00b8d4b4-910aaa0c] found.
Track [ CRC | V2 ] Status
01 [77ceb53e|07d1f36f] (00+04/22) Accurately ripped
02 [2752503c|67a9f0cc] (00+04/22) Accurately ripped
03 [3b91a962|686d46d9] (00+04/22) Accurately ripped
04 [9e31b715|27674a3e] (00+04/22) Accurately ripped
05 [7531bc78|cb3b512a] (00+04/22) Accurately ripped
06 [3a5d75a4|1e2b1625] (00+04/23) Accurately ripped
07 [dc4165b3|6f28dd03] (00+04/23) Accurately ripped
08 [fefa343e|3853645c] (00+04/22) Accurately ripped
09 [00489316|ce0b3907] (00+04/23) Accurately ripped
10 [1e75c6da|60a93f6c] (00+04/23) Accurately ripped
11 [04590ee2|fc942359] (00+04/22) Accurately ripped
12 [93f53ebd|fdacd64e] (00+04/23) Accurately ripped
Offsetted by -1935:
01 [13d2bf3c] (06/22) Accurately ripped
02 [367cda0a] (06/22) Accurately ripped
03 [5155995a] (06/22) Accurately ripped
04 [fa7f07ea] (06/22) Accurately ripped
05 [7522fbde] (06/22) Accurately ripped
06 [b20bc3a4] (07/23) Accurately ripped
07 [1fb4a572] (07/23) Accurately ripped
08 [f98f7ce4] (06/22) Accurately ripped
09 [ec56051c] (07/23) Accurately ripped
10 [d23c5220] (07/23) Accurately ripped
11 [50cb6142] (06/22) Accurately ripped
12 [35c17263] (07/23) Accurately ripped

Track Peak [ CRC32 ] [W/O NULL] [ LOG ]
– 100,0 [59D21312] [6475A823] CRC32
01 97,3 [67A03C0D] [01FFCB6E]
02 100,0 [B3A159AD] [0457316F]
03 99,4 [D6B40E6B] [C79AA4D7]
04 95,6 [198A5684] [34BDEF97]
05 97,2 [9DB919B5] [A90CE3D0]
06 97,8 [A355EF5B] [73108C9E]
07 98,7 [41167A0A] [D83C132E]
08 90,4 [D56DE92D] [DB369073]
09 95,4 [77E82728] [D25CC3AB]
10 85,7 [5BE5583F] [3A082183]
11 78,6 [69461AB7] [934D2096]
12 99,7 [9E37B534] [FAD5CD64]

Kathy Mattea - Ready For The Storm (1995)


All thanks go to sergych

>>> Kathy Mattea in my Blog <<<

DOWNLOAD: